Pokaż wyniki od 1 do 1 z 1
  1. #1
    Professional Uploader Avatar Léon
    Dołączył
    16.12.2013
    Skąd
    Paryż
    Postów
    5 411
    Postawił
    33
    Piwa otrzymane
    16 403 (4 968)

    OK Transformers: Wiek zagłady | 2014 [1080p][BluRay]


    Transformers: Wiek zagłady (2014)
    Transformers: Age of Extinction







    Ocena: 6,6/10
    Produkcja: Chiny, USA,
    Gatunek: Akcja, Sci-Fi,
    Światowa Premiera: 2014-06-19
    Polska Premiera: 2014-06-27
    Reżyseria: Michael Bay
    Zdjęcia: Amir M. Mokri
    Scenariusz: Ehren Kruger
    Muzyka: Steve Jablonsky
    Czas trwania: 2 godz. 45 min.
    Dystrybucja: United International Pictures Sp z o.o.
    O filmie: Transformers: Wiek zagłady (2014) - Filmweb





    Mark Wahlberg - Cade Yeager
    Stanley Tucci - Joshua Joyce
    Kelsey Grammer - Harold Attinger
    Nicola Peltz - Tessa Yeager





    Ludzkość próbuje dojść do siebie po wydarzeniach, które miały miejsce w ostatnim czasie. Zarówno Autoboty jak i Decepticony praktycznie zniknęły z naszej planety. Mimo to nie wszyscy zapomnieli o ich istnieniu. Grupa naukowców i biznesmenów stara się, jak najwięcej dowiedzieć o technologii Transformersów, co często popycha ich do przekraczania granic, których nigdy nie powinni naruszać. Tymczasem na Ziemię powracają Decepticony i ponownie rozpoczyna się walka dobra ze złem.









    Kod:
    Format : Matroska
    Format version : Version 2
    File size: 10.9 GiB
    Duration : 2h 45mn
    Overall bit rate : 9 474 Kbps
    Writing application: mkvmerge v4.1.1 ('Bouncin' Back') built on Jul3 2010 22:54:08
    Writing library: libebml v1.0.0 + libmatroska v1.0
    
    Video
    ID : 1
    Format : AVC
    Format/Info: Advanced Video Codec
    Format profile : [email protected]
    Format settings, CABAC : Yes
    Format settings, ReFrames: 5 frames
    Codec ID : V_MPEG4/ISO/AVC
    Duration : 2h 45mn
    Bit rate : 8 835 Kbps
    Width: 1 920 pixels
    Height : 800 pixels
    Display aspect ratio : 2.40:1
    Frame rate mode: Constant
    Frame rate : 23.976 fps
    Color space: YUV
    Chroma subsampling : 4:2:0
    Bit depth: 8 bits
    Scan type: Progressive
    Bits/(Pixel*Frame) : 0.240
    Stream size: 9.97 GiB (91%)
    Writing library: x264 
    Language : English
    Default: Yes
    Forced : No
    
    Audio
    ID : 2
    Format : AC-3
    Format/Info: Audio Coding 3
    Mode extension : CM (complete main)
    Format settings, Endianness: Big
    Codec ID : A_AC3
    Duration : 2h 45mn
    Bit rate mode: Constant
    Bit rate : 640 Kbps
    Channel(s) : 6 channels
    Channel positions: Front: L C R, Side: L R, LFE
    Sampling rate: 48.0 KHz
    Bit depth: 16 bits
    Compression mode : Lossy
    Stream size: 756 MiB (7%)
    Language : English
    Default: Yes
    Forced : No
    
    Text
    ID : 3
    Format : UTF-8
    Codec ID : S_TEXT/UTF8
    Codec ID/Info: UTF-8 Plain Text
    Title: Forced
    Language : English
    Default: Yes
    Forced : Yes

    Part 1


    Nazwa pliku: Transformers.Age.of.Extinction.2014.1080p.BluRay.x264.part1.rar
    Rozmiar pliku: 3550,00 MB
    CRC32: 5F30BD28
    Liczba segmentów: 417
    Liczba mirrorów: 7
    Uploader: Leon Zawodowiec
    Upload dla: p2m.net.pl


    Part 2


    Nazwa pliku: Transformers.Age.of.Extinction.2014.1080p.BluRay.x264.part2.rar
    Rozmiar pliku: 3550,00 MB
    CRC32: 6E7A41EE
    Liczba segmentów: 420
    Liczba mirrorów: 7
    Uploader: Leon Zawodowiec
    Upload dla: p2m.net.pl


    Part 3


    Nazwa pliku: Transformers.Age.of.Extinction.2014.1080p.BluRay.x264.part3.rar
    Rozmiar pliku: 3550,00 MB
    CRC32: B09CCC99
    Liczba segmentów: 419
    Liczba mirrorów: 7
    Uploader: Leon Zawodowiec
    Upload dla: p2m.net.pl


    Part 4


    Nazwa pliku: Transformers.Age.of.Extinction.2014.1080p.BluRay.x264.part4.rar
    Rozmiar pliku: 1506,76 MB
    CRC32: 5C954BA8
    Liczba segmentów: 178
    Liczba mirrorów: 5
    Uploader: Leon Zawodowiec
    Upload dla: p2m.net.pl




    Part 1


    Pokaż HC

     
    Wszystko w porządku
    Zakończenie sprawdzania segmentów: 2014-09-24 08:27:17

    Part 2


    Pokaż HC

     
    Wszystko w porządku
    Zakończenie sprawdzania segmentów: 2014-09-24 08:27:17

    Part 3


    Pokaż HC

     
    Wszystko w porządku
    Zakończenie sprawdzania segmentów: 2014-09-24 08:27:17

    Part 4


    Pokaż HC

     
    Wszystko w porządku
    Zakończenie sprawdzania segmentów: 2014-09-24 08:27:17


    Ostatnio edytowane przez Markus* ; 24.09.2014 o 08:31




  2. Léon upija się na koszt 3 osób:

    Duff  (28.09.2014), liet (22.09.2014), W (20.09.2014)

Zakładki

Zakładki

Uprawnienia

  • Nie możesz zakładać nowych tematów
  • Nie możesz pisać wiadomości
  • Nie możesz dodawać załączników
  • Nie możesz edytować swoich postów
  •  
  • BB Code jest Włączony
  • EmotikonyWłączony
  • [IMG] kod jest Włączony
  • [VIDEO] code is Włączony
  • HTML jest Wyłączony
  • Trackbacki : Wyłączony
  • Pingbacki : Wyłączony
  • Refbacki : Włączony