Pokaż wyniki od 1 do 6 z 6
  1. #1
    Professional Uploader Avatar Léon
    Dołączył
    16.12.2013
    Skąd
    Paryż
    Postów
    5 411
    Postawił
    33
    Piwa otrzymane
    16 404 (4 968)

    ENG Legend | 2015 [720p][BluRay]


    Legend (2015)







    Ocena: 7,2
    Produkcja: Francja, Wielka Brytania,
    Gatunek: Biograficzny, Gangsterski,
    Światowa Premiera: b/d
    Polska Premiera: b/d
    Reżyseria: Brian Helgeland,
    Zdjęcia: Dick Pope
    Scenariusz: Brian Helgeland,
    Muzyka: Carter Burwell
    Dystrybucja: Monolith Films
    O filmie: Legend (2015) - Filmweb





    Tom Hardy - Leslie Payne
    Duffy - Timi Yuro
    Christopher Eccleston - Jack McVitie
    Taron Egerton - Mad Teddy Smith





    Oparta na faktach opowieść o narodzinach i upadku gangsterskiego imperium braci bliźniaków Rona i Reggie’go Kray, którzy w barwnych latach 60-tych terroryzowali Londyn. W walce o miejsce na szczycie byli zawsze bezlitośni i nierozłączni, ich brutalność przeszła do legendy. Jednak gdy pojawiły się wielkie pieniądze, władza i kobiety, ich drogi zaczęły się rozchodzić. Pojawiły się odmienne pomysły na prowadzenie "biznesu", a w konsekwencji konflikty, na które tylko czekali[span class="fullText hide"]ich wrogowie.









    Kod:
    Format : Matroska
    Format version : Version 2
    File size: 4.37 GiB
    Duration : 2h 11mn
    Overall bit rate : 4 776 Kbps
    Writing application: mkvmerge v6.6.0 ('The Edge Of The In Between') built on Dec 1 2013 17:55:00
    Writing library: libebml v1.3.0 + libmatroska v1.4.1
    
    Video
    ID : 1
    Format : AVC
    Format/Info: Advanced Video Codec
    Format profile : [email protected]
    Format settings, CABAC : Yes
    Format settings, ReFrames: 5 frames
    Codec ID : V_MPEG4/ISO/AVC
    Duration : 2h 11mn
    Bit rate : 4 007 Kbps
    Width: 1 280 pixels
    Height : 536 pixels
    Display aspect ratio : 2.40:1
    Frame rate mode: Constant
    Frame rate : 24.000 fps
    Color space: YUV
    Chroma subsampling : 4:2:0
    Bit depth: 8 bits
    Scan type: Progressive
    Bits/(Pixel*Frame) : 0.243
    Stream size: 3.58 GiB (82%)
    Writing library: x264 
    Language : English
    Default: Yes
    Forced : No
    
    Audio
    ID : 2
    Format : DTS
    Format/Info: Digital Theater Systems
    Mode : 16
    Format settings, Endianness: Big
    Codec ID : A_DTS
    Duration : 2h 11mn
    Bit rate mode: Constant
    Bit rate : 768 Kbps
    Channel(s) : 6 channels
    Channel positions: Front: L C R, Side: L R, LFE
    Sampling rate: 48.0 KHz
    Bit depth: 24 bits
    Compression mode : Lossy
    Stream size: 720 MiB (16%)
    Language : English
    Default: Yes
    Forced : No
    
    Text #1
    ID : 3
    Format : UTF-8
    Codec ID : S_TEXT/UTF8
    Codec ID/Info: UTF-8 Plain Text
    Language : English
    Default: No
    Forced : No
    
    Text #2
    ID : 4
    Format : UTF-8
    Codec ID : S_TEXT/UTF8
    Codec ID/Info: UTF-8 Plain Text
    Title: SDH
    Language : English
    Default: No
    Forced : No


    Nazwa pliku: Legend.2015.720p.BluRay.X264.rar
    Rozmiar pliku: 4403,49 MB
    CRC32: 55DACABE
    Liczba segmentów: 516
    Liczba mirrorów: 6
    Uploader: Leon
    Upload dla: p2m.net.pl





    Pokaż HC





  2. Léon upija się na koszt 2 osób:

    marti_ns (24.01.2016), Pieseł (29.01.2016)

  3. #2
    Master Avatar Parazzo
    Dołączył
    15.12.2007
    Wiek
    39
    Postów
    175
    Postawił
    118
    Piwa otrzymane
    187 (145)

    Domyślnie

    dupa nie idzie zatrzymuje sie przy 50%

  4. #3
    Member
    Dołączył
    23.02.2010
    Postów
    2
    Postawił
    0
    Piwa otrzymane
    3 (2)

    Domyślnie

    Wszystko idzie. Sam sciagnalem wczoraj ok. 22. Wylacz i wlacz MS i pojdzie. Odpal wszystkie mirrory. Pozdro

  5. Bartek_pl upija się na koszt:

    Pieseł (29.01.2016)

  6. #4
    Master Avatar Parazzo
    Dołączył
    15.12.2007
    Wiek
    39
    Postów
    175
    Postawił
    118
    Piwa otrzymane
    187 (145)

    Domyślnie

    to ten program to jakies dziadostwo z bledami

  7. #5
    Member
    Dołączył
    23.02.2010
    Postów
    2
    Postawił
    0
    Piwa otrzymane
    3 (2)

    Domyślnie

    Nie ma programow doskonalych.

  8. Bartek_pl upija się na koszt 2 osób:

    Black (22.01.2016), Pieseł (29.01.2016)

  9. #6
    Professional Uploader Avatar Léon
    Dołączył
    16.12.2013
    Skąd
    Paryż
    Postów
    5 411
    Postawił
    33
    Piwa otrzymane
    16 404 (4 968)

    Domyślnie

    dla testu odpaliłem i pobrane bez problemu.




Zakładki

Zakładki

Uprawnienia

  • Nie możesz zakładać nowych tematów
  • Nie możesz pisać wiadomości
  • Nie możesz dodawać załączników
  • Nie możesz edytować swoich postów
  •  
  • BB Code jest Włączony
  • EmotikonyWłączony
  • [IMG] kod jest Włączony
  • [VIDEO] code is Włączony
  • HTML jest Wyłączony
  • Trackbacki : Wyłączony
  • Pingbacki : Wyłączony
  • Refbacki : Włączony