Pokaż wyniki od 1 do 1 z 1
  1. #1
    Member Avatar roy13
    Dołączył
    9.12.2011
    Postów
    5
    Postawił
    2
    Piwa otrzymane
    55 (13)

    OK Wsciekle Psy-Reservoir.Dogs PL.1992.720p.Bluray.x264(BAT)


    Wściekłe Psy((1992))
    Reservoir Dogs







    Ocena:8,0
    Produkcja:USA
    Gatunek:Thriller
    Światowa Premiera:1992-01-21
    Reżyseria:Quentin Tarantino
    Zdjęcia:Andrzej Sekuła
    Scenariusz:Quentin Tarantino
    Czas trwania:99 min

    O filmie:Filmweb.pl - filmy takie jak Ty™!





    Harvey Keitel - Biały / Larry
    Michael Madsen - Vic Vega / Blondyn
    Tim Roth - Freddy Newendyke / Pomarańczowy
    Steve Buscemi - Różowy
    Quentin Tarantino - Brązowy
    Edward Bunker - Niebieski
    Chris Penn - Eddie
    Kirk Baltz - Marvin Nash, oficer LAPD
    Lawrence Tierney - Joe Cabot
    Steven Wright - K-Billy DJ (głos)





    Po nieudanym napadzie na sklep jubilerski kilku jego uczestników spotyka się w opuszczonym magazynie, by ustalić, kto zdradził policji ich plan. Wściekłe psy to nie znający się wzajemnie, najemni gangsterzy o \"kolorowych\" pseudonimach. Ich zleceniodawcami są Joe Cabot i jego syn Eddie. Prowadzone przez nich wewnętrzne śledztwo polega na rzucaniu wymyślnych przekleństw, wzajemnym oskarżaniu i torturowaniu porwanego policjanta.











    Kod:
    Format : Matroska Format version : Version 2 File size: 4.68 GiB Duration : 1h 39mn Overall bit rate : 6 760 Kbps Video Format : AVC Format/Info: Advanced Video Codec Format profile : [email protected] Format settings, CABAC : Yes Format settings, ReFrames: 8 frames Duration : 1h 39mn Bit rate : 4 800 Kbps Audio #1 ID : 2 Format : AC-3 Format/Info: Audio Coding 3 Mode extension : CM (complete main) Codec ID : A_AC3 Duration : 1h 39mn Bit rate mode: Constant Bit rate : 448 Kbps Channel(s) : 6 channels Channel positions: Front: L C R, Side: L R, LFE Sampling rate: 48.0 KHz Bit depth: 16 bits Compression mode : Lossy Stream size: 318 MiB (7%) Language : Polish Default: Yes Forced : No Audio #2 ID : 3 Format : DTS Format/Info: Digital Theater Systems Format profile : ES Codec ID : A_DTS Duration : 1h 39mn Bit rate mode: Constant Bit rate : 1 510 Kbps Channel(s) : 7 channels / 6 channels Channel positions: Front: L C R, Side: L R, Back: C, LFE / Front: L C R, Side: L R, LFE Sampling rate: 48.0 KHz Bit depth: 24 bits Compression mode : Lossy Delay relative to video: 11ms Stream size: 1.05 GiB (22%) Language : English Default: No Forced : No


    Part 1


    Nazwa pliku: Wsciekle Psy-Reservoir.Dogs.1992.720p.Bluray.x264.part1.rar
    Rozmiar pliku: 2750,00MB
    CRC32: B09BE2B0
    Liczba segmentów: 381
    Liczba mirrorów: 15
    Uploader: roy13
    Upload dla: p2m.net.pl


    Part 2


    Nazwa pliku: Wsciekle Psy-Reservoir.Dogs.1992.720p.Bluray.x264.part2.rar
    Rozmiar pliku: 2539,27MB
    CRC32: A5C24D14
    Liczba segmentów: 352
    Liczba mirrorów: 15
    Uploader: roy13
    Upload dla: p2m.net.pl




    Part 1


    Pokaż HC

     

    Zakończenie sprawdzania segmentów: 2012-04-13 12:56:29

    Part 2


    Pokaż HC

     
    Wszystko w porządku
    Zakończenie sprawdzania segmentów: 2012-04-13 13:25:42



  2. roy13 upija się na koszt 8 osób:

    cezar116  (11.10.2012), flyhaba (15.06.2013), gala (13.04.2012), gonzol777 (16.04.2012), jatojaigi (15.04.2012), qqryku (13.04.2012), raf194 (21.04.2012), W (13.04.2012)

Zakładki

Zakładki

Uprawnienia

  • Nie możesz zakładać nowych tematów
  • Nie możesz pisać wiadomości
  • Nie możesz dodawać załączników
  • Nie możesz edytować swoich postów
  •  
  • BB Code jest Włączony
  • EmotikonyWłączony
  • [IMG] kod jest Włączony
  • [VIDEO] code is Włączony
  • HTML jest Wyłączony
  • Trackbacki : Wyłączony
  • Pingbacki : Wyłączony
  • Refbacki : Włączony