Pokaż wyniki od 1 do 1 z 1
  1. #1
    Professional Uploader Avatar Léon
    Dołączył
    16.12.2013
    Skąd
    Paryż
    Postów
    5 411
    Postawił
    33
    Piwa otrzymane
    16 404 (4 968)

    OK Obrońcy skarbów | 2014 [MULTi][720p][BluRay]


    Obrońcy skarbów (2014)
    The Monuments Men







    Ocena: 5,6/10
    Produkcja: Niemcy, USA,
    Gatunek: Dramat, Wojenny,
    Światowa Premiera: 2014-02-05
    Polska Premiera: 2014-02-28
    Reżyseria: George Clooney
    Zdjęcia: Phedon Papamichael
    Scenariusz: George ClooneyGrant Heslov
    Muzyka: Alexandre Desplat
    Czas trwania: 1 godz. 58 min.
    Dystrybucja: Imperial - Cinepix
    O filmie: Obrońcy skarbów (2014) - Filmweb





    George Clooney - Frank Stokes
    Matt Damon - James Granger
    Bill Murray - Richard Campbell
    Cate Blanchett - Claire Simone





    Lata II wojny światowej. Na polecenie Hitlera naziści grabią największe dzieła sztuki, wśród nich arcydzieła Michała Anioła i Leonarda da Vinci. Dekretem prezydenta Stanów Zjednoczonych kilku skromnych historyków musi przekształcić się w grupę agentów do zadań specjalnych i na własną rękę odnaleźć i ocalić zrabowane skarby kultury. Porzucają wszystko, czym do tej pory żyli i trafiają w wir działań wojennych.









    Kod:
    Format : Matroska
    Format version : Version 2
    File size: 5.99 GiB
    Duration : 1h 58mn
    Overall bit rate : 7 239 Kbps
    Encoded date : UTC 2014-06-12 13:53:44
    Writing application: mkvmerge v5.2.1 ('A Far Off Place') built on Jan2 2012 23:21:10
    Writing library: libebml v1.2.3 + libmatroska v1.3.0
    
    Video
    ID : 1
    Format : AVC
    Format/Info: Advanced Video Codec
    Format profile : [email protected]
    Format settings, CABAC : Yes
    Format settings, ReFrames: 5 frames
    Muxing mode: Header stripping
    Codec ID : V_MPEG4/ISO/AVC
    Duration : 1h 58mn
    Bit rate : 5 093 Kbps
    Width: 1 280 pixels
    Height : 536 pixels
    Display aspect ratio : 2.40:1
    Frame rate mode: Constant
    Frame rate : 23.976 fps
    Color space: YUV
    Chroma subsampling : 4:2:0
    Bit depth: 8 bits
    Scan type: Progressive
    Bits/(Pixel*Frame) : 0.310
    Stream size: 4.09 GiB (68%)
    Title: FILM
    Writing library: x264 
    Language : English
    Default: Yes
    Forced : No
    
    Audio #1
    ID : 2
    Format : AC-3
    Format/Info: Audio Coding 3
    Mode extension : CM (complete main)
    Format settings, Endianness: Big
    Muxing mode: Header stripping
    Codec ID : A_AC3
    Duration : 1h 58mn
    Bit rate mode: Constant
    Bit rate : 640 Kbps
    Channel(s) : 6 channels
    Channel positions: Front: L C R, Side: L R, LFE
    Sampling rate: 48.0 KHz
    Bit depth: 16 bits
    Compression mode : Lossy
    Stream size: 542 MiB (9%)
    Title: PL AUDIO 5.1
    Language : Polish
    Default: Yes
    Forced : No
    
    Audio #2
    ID : 3
    Format : DTS
    Format/Info: Digital Theater Systems
    Mode : 16
    Format settings, Endianness: Big
    Muxing mode: Header stripping
    Codec ID : A_DTS
    Duration : 1h 58mn
    Bit rate mode: Constant
    Bit rate : 1 509 Kbps
    Channel(s) : 6 channels
    Channel positions: Front: L C R, Side: L R, LFE
    Sampling rate: 48.0 KHz
    Bit depth: 24 bits
    Compression mode : Lossy
    Stream size: 1.25 GiB (21%)
    Title: ENG DTS 5.1
    Language : English
    Default: No
    Forced : No
    
    Text #1
    ID : 4
    Format : UTF-8
    Codec ID : S_TEXT/UTF8
    Codec ID/Info: UTF-8 Plain Text
    Title: PL SUB
    Language : Polish
    Default: No
    Forced : No
    
    Text #2
    ID : 5
    Format : UTF-8
    Codec ID : S_TEXT/UTF8
    Codec ID/Info: UTF-8 Plain Text
    Title: English SUB
    Language : English
    Default: No
    Forced : No
    
    Text #3
    ID : 6
    Format : UTF-8
    Codec ID : S_TEXT/UTF8
    Codec ID/Info: UTF-8 Plain Text
    Title: English Forced
    Language : English
    Default: No
    Forced : No
    
    Text #4
    ID : 7
    Format : UTF-8
    Codec ID : S_TEXT/UTF8
    Codec ID/Info: UTF-8 Plain Text
    Title: English SDH
    Language : English
    Default: No
    Forced : No

    part 1


    Nazwa pliku: The.Monuments.Men.2014.MULTI.720p.BluRay.x264.DTS.part1.rar
    Rozmiar pliku: 3600,00 MB
    CRC32: 1B7BA5F0
    Liczba segmentów: 420
    Liczba mirrorów: 7
    Uploader: Leon Zawodowiec
    Upload dla: p2m.net.pl



    part 2


    Nazwa pliku: The.Monuments.Men.2014.MULTI.720p.BluRay.x264.DTS.part2.rar
    Rozmiar pliku: 3005,61 MB
    CRC32: C3592A29
    Liczba segmentów: 358
    Liczba mirrorów: 7
    Uploader: Leon Zawodowiec
    Upload dla: p2m.net.pl




    part1


    Pokaż HC


     
    Wszystko w porządku
    Zakończenie sprawdzania segmentów: 2014-06-14 22:40:28


    part2


    Pokaż HC


     
    Wszystko w porządku
    Zakończenie sprawdzania segmentów: 2014-06-14 22:34:59
    bodziosol




    Ostatnio edytowane przez bodziosol ; 14.06.2014 o 23:43




  2. Léon upija się na koszt 2 osób:

    saratoga1 (14.06.2014), W (14.06.2014)

Zakładki

Zakładki

Uprawnienia

  • Nie możesz zakładać nowych tematów
  • Nie możesz pisać wiadomości
  • Nie możesz dodawać załączników
  • Nie możesz edytować swoich postów
  •  
  • BB Code jest Włączony
  • EmotikonyWłączony
  • [IMG] kod jest Włączony
  • [VIDEO] code is Włączony
  • HTML jest Wyłączony
  • Trackbacki : Wyłączony
  • Pingbacki : Wyłączony
  • Refbacki : Włączony