Pokaż wyniki od 1 do 1 z 1
  1. #1
    Professional Uploader Avatar Léon
    Dołączył
    16.12.2013
    Skąd
    Paryż
    Postów
    5 411
    Postawił
    33
    Piwa otrzymane
    16 404 (4 968)

    OK Babcia Gandzia | 2012 [MULTi][720p][BluRay]


    Babcia Gandzia (2012)
    Paulette







    Ocena: 6,7/10
    Produkcja: Francja,
    Gatunek: Komedia kryminalna,
    Światowa Premiera: 2013-01-16
    Polska Premiera: 2013-12-26
    Reżyseria: Jérôme Enrico
    Zdjęcia: Bruno Privat
    Scenariusz: Jérôme EnricoLaurie AubanelCyril RambourBianca Olsen
    Muzyka: Michel Ochowiak
    Czas trwania: 1 godz. 30 min.
    Dystrybucja: Aurora Films
    O filmie: Babcia Gandzia (2012) - Filmweb





    Bernadette Lafont - Paulette
    Carmen Maura - Maria
    Dominique Lavanant - Lucienne
    Françoise Bertin - Renée





    Paulette od śmierci męża mieszka samotnie na przedmieściach Paryża. Cukiernię, którą dawniej prowadziła, przerobiono na japońską restaurację, a ona sama nie jest w stanie utrzymać się z głodowej emerytury. Bohaterce, granej przez Bernadette Lafont (dawna muza François Truffauta), daleko do typowej, uroczej staruszki. Jest pełna jadu i niechęci do imigrantów. Dawno temu pokłóciła się z własną córką, która poślubiła czarnoskórego policjanta, a wnuk z tego związku to jej powód[span class="fullText hide"]do wstydu. Nic nie jest w stanie jej pocieszyć i nikt nie potrafi jej uciszyć. Dopiero perspektywa utraty mieszkania zmienia jej nastawienie do otoczenia, a film z mrocznego, społecznego dramatu zamienia się w dynamiczną komedię, pełną niepoprawnych politycznie gagów. Przedmieścia to miejsce, gdzie wszystko jest możliwe. W czasie policyjnego pościgu diler wyrzuca dużą paczkę haszyszu, która ląduje wprost w rękach Paulette. Staruszka bierze byka za rogi - postanawia skorzystać z możliwości nieoczekiwanego zarobku. Twardo negocjuje z miejscowym gangsterami i w zamian za pomoc w dystrybucji obiecuje być ich przykrywką. Taki układ pozwala Paulette rozkręcić domowy interes - sprzedaż przepysznych wypieków z dominującą w smaku nutą konopi. Pomagają jej w tym trzy postrzelone koleżanki, razem tworzące wręcz montypytonowski gang starszych pań. Tak jak klienci ciastkami, Paulette rozkoszuje się swoim nowym życiem, w którym "zarabia pieniądze i spotyka świetnych ludzi".









    Kod:
    Format : Matroska
    Format version : Version 4 / Version 2
    File size: 5.63 GiB
    Duration : 1h 26mn
    Overall bit rate : 9 290 Kbps
    Encoded date : UTC 2014-06-18 08:30:53
    Writing application: mkvmerge v6.7.0 ('Back to the Ground') 32bit built on Jan8 2014 15:03:17
    Writing library: libebml v1.3.0 + libmatroska v1.4.1
    
    Video
    ID : 1
    Format : AVC
    Format/Info: Advanced Video Codec
    Format profile : [email protected]
    Format settings, CABAC : Yes
    Format settings, ReFrames: 9 frames
    Codec ID : V_MPEG4/ISO/AVC
    Duration : 1h 26mn
    Bit rate : 6 316 Kbps
    Width: 1 280 pixels
    Height : 692 pixels
    Display aspect ratio : 1.85:1
    Frame rate mode: Constant
    Frame rate : 24.000 fps
    Color space: YUV
    Chroma subsampling : 4:2:0
    Bit depth: 8 bits
    Scan type: Progressive
    Bits/(Pixel*Frame) : 0.297
    Stream size: 3.83 GiB (68%)
    Title: FILM
    Writing library: x264 
    Language : French
    Default: Yes
    Forced : No
    
    Audio #1
    ID : 2
    Format : AC-3
    Format/Info: Audio Coding 3
    Mode extension : CM (complete main)
    Format settings, Endianness: Big
    Codec ID : A_AC3
    Duration : 1h 26mn
    Bit rate mode: Constant
    Bit rate : 640 Kbps
    Channel(s) : 6 channels
    Channel positions: Front: L C R, Side: L R, LFE
    Sampling rate: 48.0 KHz
    Bit depth: 16 bits
    Compression mode : Lossy
    Stream size: 397 MiB (7%)
    Title: PL AUDIO 5.1
    Language : Polish
    Default: Yes
    Forced : No
    
    Audio #2
    ID : 3
    Format : DTS
    Format/Info: Digital Theater Systems
    Mode : 16
    Format settings, Endianness: Big
    Codec ID : A_DTS
    Duration : 1h 26mn
    Bit rate mode: Constant
    Bit rate : 1 509 Kbps
    Channel(s) : 6 channels
    Channel positions: Front: L C R, Side: L R, LFE
    Sampling rate: 48.0 KHz
    Bit depth: 24 bits
    Compression mode : Lossy
    Stream size: 937 MiB (16%)
    Title: FRENCH DTS 5.1
    Language : French
    Default: No
    Forced : No
    
    Audio #3
    ID : 4
    Format : AC-3
    Format/Info: Audio Coding 3
    Mode extension : CM (complete main)
    Format settings, Endianness: Big
    Codec ID : A_AC3
    Duration : 1h 26mn
    Bit rate mode: Constant
    Bit rate : 384 Kbps
    Channel(s) : 2 channels
    Channel positions: Front: L R
    Sampling rate: 48.0 KHz
    Bit depth: 16 bits
    Compression mode : Lossy
    Stream size: 238 MiB (4%)
    Title: FRENCH AC3 2.0
    Language : French
    Default: No
    Forced : No
    
    Audio #4
    ID : 5
    Format : AC-3
    Format/Info: Audio Coding 3
    Mode extension : CM (complete main)
    Format settings, Endianness: Big
    Codec ID : A_AC3
    Duration : 1h 26mn
    Bit rate mode: Constant
    Bit rate : 256 Kbps
    Channel(s) : 2 channels
    Channel positions: Front: L R
    Sampling rate: 48.0 KHz
    Bit depth: 16 bits
    Compression mode : Lossy
    Stream size: 159 MiB (3%)
    Title: PL AUDIO 2.0
    Language : Polish
    Default: No
    Forced : No
    
    Text #1
    ID : 6
    Format : UTF-8
    Codec ID : S_TEXT/UTF8
    Codec ID/Info: UTF-8 Plain Text
    Title: PL SUB
    Language : Polish
    Default: No
    Forced : No
    
    Text #2
    ID : 7
    Format : UTF-8
    Codec ID : S_TEXT/UTF8
    Codec ID/Info: UTF-8 Plain Text
    Title: ENG SUB
    Language : English
    Default: No
    Forced : No

    Part 1


    Nazwa pliku: Paulette.2012.MULTI.720p.BluRay.x264.DTS.part1.rar
    Rozmiar pliku: 3400,00 MB
    CRC32: D32974D7
    Liczba segmentów: 397
    Liczba mirrorów: 5
    Uploader: Leon Zawodowiec
    Upload dla: p2m.net.pl


    Part 2


    Nazwa pliku: Paulette.2012.MULTI.720p.BluRay.x264.DTS.part2.rar
    Rozmiar pliku: 2835,63 MB
    CRC32: 0040D4BF
    Liczba segmentów: 332
    Liczba mirrorów: 5
    Uploader: Leon Zawodowiec
    Upload dla: p2m.net.pl




    Part 1


    Pokaż HC


     
    Wszystko w porządku
    Zakończenie sprawdzania segmentów: 2014-06-19 12:44:55


    Part 2


    Pokaż HC


     
    Wszystko w porządku
    Zakończenie sprawdzania segmentów: 2014-06-19 12:44:44
    bodziosol




    Ostatnio edytowane przez bodziosol ; 19.06.2014 o 13:48




  2. Léon upija się na koszt 2 osób:

    Pieseł (25.08.2014), W (19.06.2014)

Zakładki

Zakładki

Uprawnienia

  • Nie możesz zakładać nowych tematów
  • Nie możesz pisać wiadomości
  • Nie możesz dodawać załączników
  • Nie możesz edytować swoich postów
  •  
  • BB Code jest Włączony
  • EmotikonyWłączony
  • [IMG] kod jest Włączony
  • [VIDEO] code is Włączony
  • HTML jest Wyłączony
  • Trackbacki : Wyłączony
  • Pingbacki : Wyłączony
  • Refbacki : Włączony