Pokaż wyniki od 1 do 1 z 1
  1. #1
    Professional Uploader Avatar Léon
    Dołączył
    16.12.2013
    Skąd
    Paryż
    Postów
    5 411
    Postawił
    33
    Piwa otrzymane
    16 407 (4 968)

    PL Pionér | 2013 [PL][720p][BRRip]


    Pionér (2013)







    Ocena: 6,2/10
    Produkcja: Finlandia, Francja, Niemcy, Norwegia, Szwecja,
    Gatunek: Thriller,
    Światowa Premiera: 2013-08-30
    Polska Premiera: b/d
    Reżyseria: Erik Skjoldbjćrg
    Zdjęcia: Jallo Faber
    Scenariusz: Hans GunnarssonCathinka NicolaysenKathrine ValenNikolaj FrobeniusErik Skjoldbjćrg
    Muzyka:
    Czas trwania: 1 godz. 40 min.
    Dystrybucja: b/d
    O filmie: Pod dnem (2013) - Filmweb





    Aksel Hennie - Peder
    Wes Bentley - Mike
    Stephen Lang - Ferris
    Jonathan LaPaglia - Ronald





    Lata 80. XX wieku, początek wielkiego norweskiego boomu naftowego. Pod dnem Morza Północnego zostają odkryte potężne złoża ropy i gazu.









    Kod:
    Format : AVI
    Format/Info: Audio Video Interleave
    Format profile : OpenDML
    File size: 2.93 GiB
    Duration : 1h 51mn
    Overall bit rate : 3 765 Kbps
    Writing application: VirtualDubMod 1.5.10.3 | www.virtualdub-fr.org || (build 2550/release)
    Writing library: VirtualDubMod build 2550/release
    
    Video
    ID : 0
    Format : MPEG-4 Visual
    Format profile : Advanced [email protected]
    Format settings, BVOP: 2
    Format settings, QPel: No
    Format settings, GMC : No warppoints
    Format settings, Matrix: Default (H.263)
    Codec ID : XVID
    Codec ID/Hint: XviD
    Duration : 1h 51mn
    Bit rate : 3 499 Kbps
    Width: 1 280 pixels
    Height : 534 pixels
    Display aspect ratio : 2.40:1
    Frame rate : 24.000 fps
    Color space: YUV
    Chroma subsampling : 4:2:0
    Bit depth: 8 bits
    Scan type: Progressive
    Compression mode : Lossy
    Bits/(Pixel*Frame) : 0.213
    Stream size: 2.72 GiB (93%)
    Writing library: XviD 1.2.1 (UTC 2008-12-04)
    
    Audio
    ID : 1
    Format : AC-3
    Format/Info: Audio Coding 3
    Mode extension : CM (complete main)
    Format settings, Endianness: Big
    Codec ID : 2000
    Duration : 1h 51mn
    Bit rate mode: Constant
    Bit rate : 256 Kbps
    Channel(s) : 2 channels
    Channel positions: Front: L R
    Sampling rate: 48.0 KHz
    Bit depth: 16 bits
    Compression mode : Lossy
    Stream size: 204 MiB (7%)
    Alignment: Split accross interleaves
    Interleave, duration : 42 ms (1.00 video frame)
    Interleave, preload duration : 500 ms


    Nazwa pliku: Pioneer.2013.PL.720p.BRRip.XviD.AC3.rar
    Rozmiar pliku: 3249,74 MB
    CRC32: F2965FC3
    Liczba segmentów: 383
    Liczba mirrorów: 8
    Uploader: Leon Zawodowiec
    Upload dla: p2m.net.pl





    Pokaż HC





  2. Léon upija się na koszt 2 osób:

    raf194 (14.08.2014), W (11.08.2014)

Zakładki

Zakładki

Uprawnienia

  • Nie możesz zakładać nowych tematów
  • Nie możesz pisać wiadomości
  • Nie możesz dodawać załączników
  • Nie możesz edytować swoich postów
  •  
  • BB Code jest Włączony
  • EmotikonyWłączony
  • [IMG] kod jest Włączony
  • [VIDEO] code is Włączony
  • HTML jest Wyłączony
  • Trackbacki : Wyłączony
  • Pingbacki : Wyłączony
  • Refbacki : Włączony