Pokaż wyniki od 1 do 1 z 1
  1. #1
    Member Avatar Kot Behemot
    Dołączył
    20.07.2007
    Postów
    1 179
    Postawił
    0
    Piwa otrzymane
    2 792 (998)

    PL & ENG Inna kobieta | 2014 | MULTI | 720p | BluRay | x264 | DTS


    Inna kobieta (2014)
    The Other Woman







    Ocena: 6,6/10
    Produkcja: USA,
    Gatunek: Komedia,
    Światowa Premiera: 2014-04-01
    Polska Premiera: 2014-04-25
    Reżyseria: Nick Cassavetes
    Zdjęcia: Robert Fraisse
    Scenariusz: Melissa Stack
    Muzyka: Aaron Zigman
    Czas trwania: 1 godz. 49 min.
    Dystrybucja: Imperial - Cinepix
    O filmie: Inna kobieta (2014) - Filmweb





    Cameron Diaz - Carly Whitten
    Leslie Mann - Kate King
    Nikolaj Coster-Waldau - Mark King
    Kate Upton - Amber





    Żona i kochanka tego samego mężczyzny odkrywają, że on zdradza je obie z trzecią kobietą. Trzy kobiety łączą swe siły, by dać mu nauczkę...









    Kod:
    Format : Matroska
    Format version : Version 4 / Version 2
    File size: 3.58 GiB
    Duration : 1h 49mn
    Overall bit rate : 4 703 Kbps
    Movie name : WiZARDS
    Encoded date : UTC 2014-08-11 13:07:46
    Writing application: mkvmerge v6.7.0 ('Back to the Ground') 32bit built on Jan8 2014 15:03:17
    Writing library: libebml v1.3.0 + libmatroska v1.4.1
    
    Video
    ID : 1
    Format : AVC
    Format/Info: Advanced Video Codec
    Format profile : [email protected]
    Format settings, CABAC : Yes
    Format settings, ReFrames: 4 frames
    Codec ID : V_MPEG4/ISO/AVC
    Duration : 1h 49mn
    Bit rate : 3 499 Kbps
    Width: 1 280 pixels
    Height : 534 pixels
    Display aspect ratio : 2.40:1
    Frame rate mode: Constant
    Frame rate : 23.976 fps
    Color space: YUV
    Chroma subsampling : 4:2:0
    Bit depth: 8 bits
    Scan type: Progressive
    Bits/(Pixel*Frame) : 0.214
    Stream size: 2.60 GiB (72%)
    Title: FILM
    Writing library: x264 core 142 r2431 ac76440
    Encoding settings: cabac=1 / ref=3 / deblock=1:-2:-2 / analyse=0x3:0x113 / me=umh / subme=5 / psy=1 / psy_rd=1.00:0.25 / mixed_ref=1 / me_range=12 / chroma_me=1 / trellis=1 / 8x8dct=1 / cqm=0 / deadzone=6,6 / fast_pskip=1 / chroma_qp_offset=-2 / threads=6 / lookahead_threads=1 / sliced_threads=0 / nr=0 / decimate=0 / interlaced=0 / bluray_compat=0 / constrained_intra=0 / bframes=3 / b_pyramid=2 / b_adapt=1 / b_bias=0 / direct=3 / weightb=1 / open_gop=0 / weightp=2 / keyint=240 / keyint_min=23 / scenecut=40 / intra_refresh=0 / rc_lookahead=40 / rc=2pass / mbtree=1 / bitrate=3499 / ratetol=1.0 / qcomp=0.80 / qpmin=10 / qpmax=51 / qpstep=4 / cplxblur=20.0 / qblur=0.5 / ip_ratio=1.10 / aq=1:0.50
    Language : English
    Default: Yes
    Forced : No
    
    Audio #1
    ID : 2
    Format : AC-3
    Format/Info: Audio Coding 3
    Mode extension : CM (complete main)
    Format settings, Endianness: Big
    Codec ID : A_AC3
    Duration : 1h 49mn
    Bit rate mode: Constant
    Bit rate : 448 Kbps
    Channel(s) : 6 channels
    Channel positions: Front: L C R, Side: L R, LFE
    Sampling rate: 48.0 KHz
    Bit depth: 16 bits
    Compression mode : Lossy
    Stream size: 350 MiB (10%)
    Title: PL AC3 5.1
    Language : Polish
    Default: Yes
    Forced : No
    
    Audio #2
    ID : 3
    Format : DTS
    Format/Info: Digital Theater Systems
    Mode : 16
    Format settings, Endianness: Big
    Codec ID : A_DTS
    Duration : 1h 49mn
    Bit rate mode: Constant
    Bit rate : 755 Kbps
    Channel(s) : 6 channels
    Channel positions: Front: L C R, Side: L R, LFE
    Sampling rate: 48.0 KHz
    Bit depth: 24 bits
    Compression mode : Lossy
    Stream size: 589 MiB (16%)
    Title: ENG DTS 5.1
    Language : English
    Default: No
    Forced : No
    
    Text #1
    ID : 4
    Format : UTF-8
    Codec ID : S_TEXT/UTF8
    Codec ID/Info: UTF-8 Plain Text
    Title: PL SUB
    Language : Polish
    Default: No
    Forced : No
    
    Text #2
    ID : 5
    Format : UTF-8
    Codec ID : S_TEXT/UTF8
    Codec ID/Info: UTF-8 Plain Text
    Title: ENG SUB
    Language : English
    Default: No
    Forced : No
    
    Menu
    00:00:00.000 : :Chapter 1
    00:05:00.000 : :Chapter 2
    00:10:00.000 : :Chapter 3
    00:15:00.000 : :Chapter 4
    00:20:00.000 : :Chapter 5
    00:25:00.000 : :Chapter 6
    00:30:00.000 : :Chapter 7
    00:35:00.000 : :Chapter 8
    00:40:00.000 : :Chapter 9
    00:45:00.000 : :Chapter 10
    00:50:00.000 : :Chapter 11
    00:55:00.000 : :Chapter 12
    01:00:00.000 : :Chapter 13
    01:05:00.000 : :Chapter 14
    01:10:00.000 : :Chapter 15
    01:15:00.000 : :Chapter 16
    01:20:00.000 : :Chapter 17
    01:25:00.000 : :Chapter 18
    01:30:00.000 : :Chapter 19
    01:35:00.000 : :Chapter 20
    01:40:00.000 : :Chapter 21
    01:45:00.000 : :Chapter 22


    Nazwa pliku: The.Other.Woman.2014.MULTI.720p.BluRay.x264.DTS.rar
    Rozmiar pliku: 3941,25 MB
    CRC32: 3D3599A5
    Liczba segmentów: 564
    Liczba mirrorów: 7
    Uploader: Kot Behemot
    Upload dla: p2m.net.pl





    Pokaż HC



  2. Kot Behemot upija się na koszt 3 osób:

    raf194 (14.08.2014), tinek01 (12.08.2014), W (12.08.2014)

Zakładki

Zakładki

Uprawnienia

  • Nie możesz zakładać nowych tematów
  • Nie możesz pisać wiadomości
  • Nie możesz dodawać załączników
  • Nie możesz edytować swoich postów
  •  
  • BB Code jest Włączony
  • EmotikonyWłączony
  • [IMG] kod jest Włączony
  • [VIDEO] code is Włączony
  • HTML jest Wyłączony
  • Trackbacki : Wyłączony
  • Pingbacki : Wyłączony
  • Refbacki : Włączony