Pokaż wyniki od 1 do 1 z 1
  1. #1
    Professional Uploader Avatar Léon
    Dołączył
    16.12.2013
    Skąd
    Paryż
    Postów
    5 411
    Postawił
    33
    Piwa otrzymane
    16 407 (4 968)

    PL & ENG Inna kobieta | 2014 [MULTi][1080p][BluRay]


    Inna kobieta (2014)
    The Other Woman







    Ocena: 6,6/10
    Produkcja: USA,
    Gatunek: Komedia,
    Światowa Premiera: 2014-04-01
    Polska Premiera: 2014-04-25
    Reżyseria: Nick Cassavetes
    Zdjęcia: Robert Fraisse
    Scenariusz: Melissa Stack
    Muzyka: Aaron Zigman
    Czas trwania: 1 godz. 49 min.
    Dystrybucja: Imperial - Cinepix
    O filmie: Inna kobieta (2014) - Filmweb





    Cameron Diaz - Carly Whitten
    Leslie Mann - Kate King
    Nikolaj Coster-Waldau - Mark King
    Kate Upton - Amber





    Żona i kochanka tego samego mężczyzny odkrywają, że on zdradza je obie z trzecią kobietą. Trzy kobiety łączą swe siły, by dać mu nauczkę...









    Kod:
    Format : Matroska
    Format version : Version 4 / Version 2
    File size: 13.8 GiB
    Duration : 1h 49mn
    Overall bit rate : 18.2 Mbps
    Encoded date : UTC 2014-08-08 16:46:08
    Writing application: mkvmerge v7.1.0 ('Good Love') 64bit built on Jul 27 2014 13:06:55
    Writing library: libebml v1.3.0 + libmatroska v1.4.1
    DURATION : 01:44:17.966000000
    NUMBER_OF_FRAMES : 1800
    NUMBER_OF_BYTES: 59680
    _STATISTICS_WRITING_APP: mkvmerge v7.1.0 ('Good Love') 64bit built on Jul 27 2014 13:06:55
    _STATISTICS_WRITING_DATE_UTC : 2014-08-08 16:46:08
    _STATISTICS_TAGS : BPS DURATION NUMBER_OF_FRAMES NUMBER_OF_BYTES
    
    Video
    ID : 1
    Format : AVC
    Format/Info: Advanced Video Codec
    Format profile : [email protected]
    Format settings, CABAC : Yes
    Format settings, ReFrames: 5 frames
    Codec ID : V_MPEG4/ISO/AVC
    Duration : 1h 49mn
    Bit rate : 16.2 Mbps
    Width: 1 920 pixels
    Height : 800 pixels
    Display aspect ratio : 2.40:1
    Frame rate mode: Constant
    Frame rate : 23.976 fps
    Color space: YUV
    Chroma subsampling : 4:2:0
    Bit depth: 8 bits
    Scan type: Progressive
    Bits/(Pixel*Frame) : 0.440
    Stream size: 12.1 GiB (87%)
    Writing library: x264
    Language : English
    Default: Yes
    Forced : No
    DURATION : 01:49:07.416000000
    NUMBER_OF_FRAMES : 156981
    NUMBER_OF_BYTES: 13245254616
    _STATISTICS_WRITING_APP: mkvmerge v7.1.0 ('Good Love') 64bit built on Jul 27 2014 13:06:55
    _STATISTICS_WRITING_DATE_UTC : 2014-08-08 16:46:08
    _STATISTICS_TAGS : BPS DURATION NUMBER_OF_FRAMES NUMBER_OF_BYTES
    
    Audio #1
    ID : 2
    Format : AC-3
    Format/Info: Audio Coding 3
    Mode extension : CM (complete main)
    Format settings, Endianness: Big
    Codec ID : A_AC3
    Duration : 1h 49mn
    Bit rate mode: Constant
    Bit rate : 448 Kbps
    Channel(s) : 6 channels
    Channel positions: Front: L C R, Side: L R, LFE
    Sampling rate: 48.0 KHz
    Bit depth: 16 bits
    Compression mode : Lossy
    Stream size: 350 MiB (2%)
    Title: Jezyk
    Language : Polish
    Default: Yes
    Forced : Yes
    
    Audio #2
    ID : 3
    Format : DTS
    Format/Info: Digital Theater Systems
    Mode : 16
    Format settings, Endianness: Big
    Codec ID : A_DTS
    Duration : 1h 49mn
    Bit rate mode: Constant
    Bit rate : 1 509 Kbps
    Channel(s) : 6 channels
    Channel positions: Front: L C R, Side: L R, LFE
    Sampling rate: 48.0 KHz
    Bit depth: 24 bits
    Compression mode : Lossy
    Stream size: 1.15 GiB (8%)
    Title: Jezyk
    Language : English
    Default: No
    Forced : No
    
    Text #1
    ID : 4
    Format : UTF-8
    Codec ID : S_TEXT/UTF8
    Codec ID/Info: UTF-8 Plain Text
    Title: Jezyk
    Language : Polish
    Default: No
    Forced : No
    
    Text #2
    ID : 5
    Format : PGS
    Muxing mode: zlib
    Codec ID : S_HDMV/PGS
    Codec ID/Info: The same subtitle format used on BDs/HD-DVDs
    Title: Jezyk
    Language : English
    Default: No
    Forced : No

    Part 1


    Nazwa pliku: The.Other.Woman.2014.MULTi.1080p.BluRay.x264.part1.rar
    Rozmiar pliku: 3850,00 MB
    CRC32: 68F9D3F2
    Liczba segmentów: 452
    Liczba mirrorów: 9
    Uploader: Leon Zawodowiec
    Upload dla: p2m.net.pl


    Part 2


    Nazwa pliku: The.Other.Woman.2014.MULTi.1080p.BluRay.x264.part2.rar
    Rozmiar pliku: 3850,00 MB
    CRC32: 8E5DADE9
    Liczba segmentów: 453
    Liczba mirrorów: 10
    Uploader: Leon Zawodowiec
    Upload dla: p2m.net.pl


    Part 3


    Nazwa pliku: The.Other.Woman.2014.MULTi.1080p.BluRay.x264.part3.rar
    Rozmiar pliku: 3850,00 MB
    CRC32: 2C188FFA
    Liczba segmentów: 454
    Liczba mirrorów: 10
    Uploader: Leon Zawodowiec
    Upload dla: p2m.net.pl


    Part 4


    Nazwa pliku: The.Other.Woman.2014.MULTi.1080p.BluRay.x264.part4.rar
    Rozmiar pliku: 3657,03 MB
    CRC32: 85CCE92B
    Liczba segmentów: 429
    Liczba mirrorów: 10
    Uploader: Leon Zawodowiec
    Upload dla: p2m.net.pl




    Part 1


    Pokaż HC


    Part 2


    Pokaż HC


    Part 3


    Pokaż HC


    Part 4


    Pokaż HC


    Ostatnio edytowane przez Léon ; 12.08.2014 o 17:31




  2. Léon upija się na koszt 2 osób:

    W (12.08.2014), WERPACH (12.08.2014)

Zakładki

Zakładki

Uprawnienia

  • Nie możesz zakładać nowych tematów
  • Nie możesz pisać wiadomości
  • Nie możesz dodawać załączników
  • Nie możesz edytować swoich postów
  •  
  • BB Code jest Włączony
  • EmotikonyWłączony
  • [IMG] kod jest Włączony
  • [VIDEO] code is Włączony
  • HTML jest Wyłączony
  • Trackbacki : Wyłączony
  • Pingbacki : Wyłączony
  • Refbacki : Włączony