Pokaż wyniki od 1 do 1 z 1
  1. #1
    Professional Uploader Avatar Léon
    Dołączył
    16.12.2013
    Skąd
    Paryż
    Postów
    5 411
    Postawił
    33
    Piwa otrzymane
    16 407 (4 968)

    OK Fonzy | 2013 [MULTi][1080p][BluRay]


    Fonzy (2013)







    Ocena: 6,0/10
    Produkcja: Francja,
    Gatunek: Komedia,
    Światowa Premiera: 2013-10-30
    Polska Premiera: b/d
    Reżyseria: Isabelle Doval
    Zdjęcia: Gilles Henry
    Scenariusz: b/d
    Muzyka:
    Czas trwania: 1 godz. 43 min.
    Dystrybucja: b/d
    O filmie: Fonzy (2013) - Filmweb





    José Garcia - Diego
    Audrey Fleurot - Elsa
    Lucien Jean-Baptiste - Quentin
    Gérard Hernandez - Ramon





    Syn hiszpańskich emigrantów, Diego (José Garcia), w młodości został dawcą spermy, by zarobić na życie. Dwadzieścia lat później niezaradny życiowo mężczyzna pracuje w rodzinnej firmie jako dostawca ryb w Paryżu. Pewnego dnia dowiaduje się, że spłodził sporą gromadkę dzieci. Okazuje się, że jest ich ponad 500. Część jego potomków wnosi do banku spermy petycję o ujawnienie danych ojca.









    Kod:
    Format : Matroska
    Format version : Version 4 / Version 2
    File size: 7.83 GiB
    Duration : 1h 42mn
    Overall bit rate : 10.9 Mbps
    Encoded date : UTC 2014-08-12 15:54:36
    Writing application: mkvmerge v6.7.0 ('Back to the Ground') 32bit built on Jan8 2014 15:03:17
    Writing library: libebml v1.3.0 + libmatroska v1.4.1
    
    Video
    ID : 1
    Format : AVC
    Format/Info: Advanced Video Codec
    Format profile : [email protected]
    Format settings, CABAC : Yes
    Format settings, ReFrames: 5 frames
    Codec ID : V_MPEG4/ISO/AVC
    Duration : 1h 42mn
    Bit rate : 9 176 Kbps
    Width: 1 920 pixels
    Height : 808 pixels
    Display aspect ratio : 2.40:1
    Frame rate mode: Constant
    Frame rate : 24.000 fps
    Color space: YUV
    Chroma subsampling : 4:2:0
    Bit depth: 8 bits
    Scan type: Progressive
    Bits/(Pixel*Frame) : 0.246
    Stream size: 6.41 GiB (82%)
    Title: FILM
    Writing library: x264 
    Language : English
    Default: Yes
    Forced : No
    
    Audio #1
    ID : 2
    Format : AC-3
    Format/Info: Audio Coding 3
    Mode extension : CM (complete main)
    Format settings, Endianness: Big
    Codec ID : A_AC3
    Duration : 1h 42mn
    Bit rate mode: Constant
    Bit rate : 256 Kbps
    Channel(s) : 2 channels
    Channel positions: Front: L R
    Sampling rate: 48.0 KHz
    Bit depth: 16 bits
    Compression mode : Lossy
    Stream size: 188 MiB (2%)
    Title: PL AUDIO
    Language : Polish
    Default: Yes
    Forced : No
    
    Audio #2
    ID : 3
    Format : DTS
    Format/Info: Digital Theater Systems
    Mode : 16
    Format settings, Endianness: Big
    Codec ID : A_DTS
    Duration : 1h 42mn
    Bit rate mode: Constant
    Bit rate : 1 509 Kbps
    Channel(s) : 6 channels
    Channel positions: Front: L C R, Side: L R, LFE
    Sampling rate: 48.0 KHz
    Bit depth: 24 bits
    Compression mode : Lossy
    Stream size: 1.08 GiB (14%)
    Title: French_DTS 5.1
    Language : French
    Default: No
    Forced : No
    
    Text
    ID : 4
    Format : UTF-8
    Codec ID : S_TEXT/UTF8
    Codec ID/Info: UTF-8 Plain Text
    Title: ENG SUB
    Language : English
    Default: No
    Forced : No

    Part 1


    Nazwa pliku: Fonzy.2013.MULTI.1080p.BluRay.x264.DTS.part1.rar
    Rozmiar pliku: 3900,00 MB
    CRC32: 7151A0CE
    Liczba segmentów: 459
    Liczba mirrorów: 8
    Uploader: Leon
    Upload dla: p2m.net.pl


    Part 2


    Nazwa pliku: Fonzy.2013.MULTI.1080p.BluRay.x264.DTS.part2.rar
    Rozmiar pliku: 3900,00 MB
    CRC32: 13342F8B
    Liczba segmentów: 459
    Liczba mirrorów: 8
    Uploader: Leon
    Upload dla: p2m.net.pl


    Part 3


    Nazwa pliku: Fonzy.2013.MULTI.1080p.BluRay.x264.DTS.part3.rar
    Rozmiar pliku: 753,67 MB
    CRC32: 55F39A2D
    Liczba segmentów: 89
    Liczba mirrorów: 7
    Uploader: Leon
    Upload dla: p2m.net.pl




    Part 1


    Pokaż HC

     
    Wszystko w porządku
    Zakończenie sprawdzania segmentów: 2014-08-31 15:41:14

    Part 2


    Pokaż HC

     
    Braki:
    Mirror: 8 - zoznam.sk
    [1,333,344,366,382,400,402,405,414,417,421,431,433,439,446,449,451,457]
    Zakończenie sprawdzania segmentów: 2014-08-31 16:01:49

    Part 3


    Pokaż HC

     
    Braki:
    Mirror: 7 - zoznam.sk
    Zakończenie sprawdzania segmentów: 2014-08-31 16:45:17


    Ostatnio edytowane przez xaveq ; 31.08.2014 o 17:47




  2. Léon upija się na koszt:

    W (13.08.2014)

Zakładki

Zakładki

Uprawnienia

  • Nie możesz zakładać nowych tematów
  • Nie możesz pisać wiadomości
  • Nie możesz dodawać załączników
  • Nie możesz edytować swoich postów
  •  
  • BB Code jest Włączony
  • EmotikonyWłączony
  • [IMG] kod jest Włączony
  • [VIDEO] code is Włączony
  • HTML jest Wyłączony
  • Trackbacki : Wyłączony
  • Pingbacki : Wyłączony
  • Refbacki : Włączony