Pokaż wyniki od 1 do 1 z 1
  1. #1
    Professional Uploader Avatar Léon
    Dołączył
    16.12.2013
    Skąd
    Paryż
    Postów
    5 411
    Postawił
    33
    Piwa otrzymane
    16 407 (4 968)

    OK Trup | 2012 [MULTi][720p][BluRay]


    Trup (2012)
    El Cuerpo







    Ocena: 7,5/10
    Produkcja: Hiszpania,
    Gatunek: Thriller,
    Światowa Premiera: 2012-10-04
    Polska Premiera: b/d
    Reżyseria: Oriol Paulo
    Zdjęcia: Óscar Faura
    Scenariusz: Oriol PauloLara Sendim
    Muzyka: Sergio Moure
    Czas trwania: 1 godz. 48 min.
    Dystrybucja: b/d
    O filmie: Trup (2012) - Filmweb





    Hugo Silva - Álex Ulloa
    Belén Rueda - Mayka Villaverde
    José Coronado - Jaime Peńa
    Aura Garrido - Carla





    Detektyw poszukuje ciała femme fatale, które zniknęło z kostnicy.









    Kod:
    Format : Matroska
    Format version : Version 4 / Version 2
    File size: 4.87 GiB
    Duration : 1h 51mn
    Overall bit rate : 6 268 Kbps
    Encoded date : UTC 2014-08-12 19:23:52
    Writing application: mkvmerge v6.7.0 ('Back to the Ground') 32bit built on Jan8 2014 15:03:17
    Writing library: libebml v1.3.0 + libmatroska v1.4.1
    
    Video
    ID : 1
    Format : AVC
    Format/Info: Advanced Video Codec
    Format profile : [email protected]
    Format settings, CABAC : Yes
    Format settings, ReFrames: 5 frames
    Codec ID : V_MPEG4/ISO/AVC
    Duration : 1h 51mn
    Bit rate : 4 114 Kbps
    Width: 1 280 pixels
    Height : 544 pixels
    Display aspect ratio : 2.35:1
    Frame rate mode: Constant
    Frame rate : 24.000 fps
    Color space: YUV
    Chroma subsampling : 4:2:0
    Bit depth: 8 bits
    Scan type: Progressive
    Bits/(Pixel*Frame) : 0.246
    Stream size: 3.10 GiB (64%)
    Title: FILM
    Writing library: x264
    
    Language : English
    Default: Yes
    Forced : No
    
    Audio #1
    ID : 2
    Format : AC-3
    Format/Info: Audio Coding 3
    Mode extension : CM (complete main)
    Format settings, Endianness: Big
    Codec ID : A_AC3
    Duration : 1h 51mn
    Bit rate mode: Constant
    Bit rate : 640 Kbps
    Channel(s) : 6 channels
    Channel positions: Front: L C R, Side: L R, LFE
    Sampling rate: 48.0 KHz
    Bit depth: 16 bits
    Compression mode : Lossy
    Stream size: 509 MiB (10%)
    Title: PL AC3 5.1
    Language : Polish
    Default: Yes
    Forced : No
    
    Audio #2
    ID : 3
    Format : DTS
    Format/Info: Digital Theater Systems
    Mode : 16
    Format settings, Endianness: Big
    Codec ID : A_DTS
    Duration : 1h 51mn
    Bit rate mode: Constant
    Bit rate : 1 509 Kbps
    Channel(s) : 6 channels
    Channel positions: Front: L C R, Side: L R, LFE
    Sampling rate: 48.0 KHz
    Bit depth: 24 bits
    Compression mode : Lossy
    Stream size: 1.17 GiB (24%)
    Title: SPA DTS 5.1
    Language : Spanish
    Default: No
    Forced : No
    
    Text #1
    ID : 4
    Format : UTF-8
    Codec ID : S_TEXT/UTF8
    Codec ID/Info: UTF-8 Plain Text
    Title: PL SUB
    Language : Polish
    Default: No
    Forced : No
    
    Text #2
    ID : 5
    Format : UTF-8
    Codec ID : S_TEXT/UTF8
    Codec ID/Info: UTF-8 Plain Text
    Title: ENG SUB
    Language : English
    Default: No
    Forced : No
    
    Text #3
    ID : 6
    Format : VobSub
    Muxing mode: zlib
    Codec ID : S_VOBSUB
    Codec ID/Info: The same subtitle format used on DVDs
    Title: SPA SUB
    Language : Spanish
    Default: No
    Forced : No

    Part 1


    Nazwa pliku: The.Body.2012.MULTI.720p.BluRay.x264.DTS.part1.rar
    Rozmiar pliku: 3850,00 MB
    CRC32: B7BDC659
    Liczba segmentów: 453
    Liczba mirrorów: 9
    Uploader: Leon Zawodowiec
    Upload dla: p2m.net.pl


    Part 2


    Nazwa pliku: The.Body.2012.MULTI.720p.BluRay.x264.DTS.part2.rar
    Rozmiar pliku: 1473,06 MB
    CRC32: 3C8358A4
    Liczba segmentów: 172
    Liczba mirrorów: 9
    Uploader: Leon Zawodowiec
    Upload dla: p2m.net.pl




    Part 1


    Pokaż HC

    Kod:
    Wszystko w porządku
    Zakończenie sprawdzania segmentów: 2014-08-31 14:26:33

    Part 2


    Pokaż HC

     
    Wszystko w porządku
    Zakończenie sprawdzania segmentów: 2014-08-31 14:41:34


    Ostatnio edytowane przez xaveq ; 31.08.2014 o 15:15




  2. Léon upija się na koszt 3 osób:

    krismej2 (14.08.2014), raf194 (14.08.2014), W (13.08.2014)

Zakładki

Zakładki

Uprawnienia

  • Nie możesz zakładać nowych tematów
  • Nie możesz pisać wiadomości
  • Nie możesz dodawać załączników
  • Nie możesz edytować swoich postów
  •  
  • BB Code jest Włączony
  • EmotikonyWłączony
  • [IMG] kod jest Włączony
  • [VIDEO] code is Włączony
  • HTML jest Wyłączony
  • Trackbacki : Wyłączony
  • Pingbacki : Wyłączony
  • Refbacki : Włączony