Pokaż wyniki od 1 do 1 z 1
  1. #1
    Professional Uploader Avatar Léon
    Dołączył
    16.12.2013
    Skąd
    Paryż
    Postów
    5 411
    Postawił
    33
    Piwa otrzymane
    16 406 (4 968)

    OK Wspaniała | 2012 [MULTi][1080p][BluRay]


    Wspaniała (2012)
    Populaire







    Ocena: 6,7/10
    Produkcja: Francja,
    Gatunek: Komedia,
    Światowa Premiera: 2012-11-17
    Polska Premiera: 2013-03-22
    Reżyseria: Régis Roinsard
    Zdjęcia: Guillaume Schiffman
    Scenariusz: Régis RoinsardDaniel PresleyRomain Compingt
    Muzyka: Rob , Emmanuel D'Orlando
    Czas trwania: 1 godz. 51 min.
    Dystrybucja: Gutek Film
    O filmie: Wspaniała (2012) - Filmweb





    Romain Duris - Louis Échard
    Déborah François - Rose Pamphyle
    Bérénice Bejo - Marie Taylor
    Shaun Benson - Bob Taylor





    Witajcie w szalonym i kolorowym świecie lat 50., gdzie mistrzostwa świata w szybkim pisaniu na maszynie budzą większe emocje niż ceremonia rozdania Oscarów i wybory Miss Universe razem wzięte. „Wspaniała" to czarująca i radosna komedia romantyczna, która stała się we Francji wielkim kasowym przebojem - to „Amelia” w świecie „Mad Men”.  Jest młoda, piękna i pełna wdzięku. Ale ma bardzo mało wiary w siebie - 21-letnia Rose marzy, by uciec z małego miasteczka i znaleźć[span class="fullText hide"]najlepszą pracę na świecie.   W 1958 roku zajęcie dające możliwość podróży i przygód, o którym  śnią wszystkie nowoczesne dziewczyny, to... praca sekretarki. Już wkrótce Rose nie tylko dostanie pracę w firmie ambitnego i przystojnego Louisa, ale też odkryje swój wyjątkowy talent. To będzie dla niej szansa na zdobycie tysięcy wielbicieli i – być może – miłości mężczyzny, na którym jej najbardziej zależy... Żeby to wszystko osiągnąć Rose musi nauczyć się pisać na maszynie - i to bardzo szybko, najszybciej na świecie!    W rolach głównych zobaczymy we „Wspaniałej" wielką gwiazdę francuskiego kina Romaina Duris („W rytmie serca”, „Smak  życia”), któremu partnerują Bérénice Bejo znana z oscarowego „Artysty” i Déborah François, laureatka Cezara dla najbardziej obiecującej młodej aktorki oraz odtwórczyni głównej roli  żeńskiej w nagrodzonym Złotą Palmą „Dziecku” braci Dardenne. 









    Kod:
    Format : Matroska
    Format version : Version 4 / Version 2
    File size: 7.99 GiB
    Duration : 1h 50mn
    Overall bit rate : 10.3 Mbps
    Encoded date : UTC 2014-08-12 18:28:49
    Writing application: mkvmerge v6.7.0 ('Back to the Ground') 32bit built on Jan8 2014 15:03:17
    Writing library: libebml v1.3.0 + libmatroska v1.4.1
    
    Video
    ID : 1
    Format : AVC
    Format/Info: Advanced Video Codec
    Format profile : [email protected]
    Format settings, CABAC : Yes
    Format settings, ReFrames: 5 frames
    Codec ID : V_MPEG4/ISO/AVC
    Duration : 1h 50mn
    Bit rate : 8 358 Kbps
    Width: 1 920 pixels
    Height : 824 pixels
    Display aspect ratio : 2.35:1
    Frame rate mode: Constant
    Frame rate : 24.000 fps
    Color space: YUV
    Chroma subsampling : 4:2:0
    Bit depth: 8 bits
    Scan type: Progressive
    Bits/(Pixel*Frame) : 0.220
    Stream size: 6.31 GiB (79%)
    Title: FILM
    Writing library: x264 
    Language : English
    Default: Yes
    Forced : No
    
    Audio #1
    ID : 2
    Format : AC-3
    Format/Info: Audio Coding 3
    Mode extension : CM (complete main)
    Format settings, Endianness: Big
    Codec ID : A_AC3
    Duration : 1h 50mn
    Bit rate mode: Constant
    Bit rate : 448 Kbps
    Channel(s) : 6 channels
    Channel positions: Front: L C R, Side: L R, LFE
    Sampling rate: 48.0 KHz
    Bit depth: 16 bits
    Compression mode : Lossy
    Stream size: 356 MiB (4%)
    Title: PL AUDIO 5.1
    Language : Polish
    Default: Yes
    Forced : No
    
    Audio #2
    ID : 3
    Format : DTS
    Format/Info: Digital Theater Systems
    Mode : 16
    Format settings, Endianness: Big
    Codec ID : A_DTS
    Duration : 1h 50mn
    Bit rate mode: Constant
    Bit rate : 1 509 Kbps
    Channel(s) : 6 channels
    Channel positions: Front: L C R, Side: L R, LFE
    Sampling rate: 48.0 KHz
    Bit depth: 24 bits
    Compression mode : Lossy
    Stream size: 1.17 GiB (15%)
    Title: FRE DTS 5.1
    Language : French
    Default: No
    Forced : No
    
    Text #1
    ID : 4
    Format : UTF-8
    Codec ID : S_TEXT/UTF8
    Codec ID/Info: UTF-8 Plain Text
    Title: PL SUB
    Language : Polish
    Default: No
    Forced : No
    
    Text #2
    ID : 5
    Format : UTF-8
    Codec ID : S_TEXT/UTF8
    Codec ID/Info: UTF-8 Plain Text
    Title: ENG SUB
    Language : English
    Default: No
    Forced : No

    Part 1


    Nazwa pliku: Populaire.2012.MULTI.1080p.BluRay.x264.DTS.part1.rar
    Rozmiar pliku: 3850,00 MB
    CRC32: 5BAD5458
    Liczba segmentów: 458
    Liczba mirrorów: 9
    Uploader: Leon Zawodowiec
    Upload dla: p2m.net.pl


    Part 2


    Nazwa pliku: Populaire.2012.MULTI.1080p.BluRay.x264.DTS.part2.rar
    Rozmiar pliku: 3850,00 MB
    CRC32: 19E1E6A5
    Liczba segmentów: 453
    Liczba mirrorów: 9
    Uploader: Leon Zawodowiec
    Upload dla: p2m.net.pl


    Part 3


    Nazwa pliku: Populaire.2012.MULTI.1080p.BluRay.x264.DTS.part3.rar
    Rozmiar pliku: 1039,95 MB
    CRC32: 0C4FAABC
    Liczba segmentów: 123
    Liczba mirrorów: 8
    Uploader: Leon Zawodowiec
    Upload dla: p2m.net.pl




    Part 1


    Pokaż HC

     
    Wszystko w porządku
    Zakończenie sprawdzania segmentów: 2014-08-30 23:50:05

    Part 2


    Pokaż HC

     
    Wszystko w porządku
    Zakończenie sprawdzania segmentów: 2014-08-31 00:07:06

    Part 3


    Pokaż HC

     
    Wszystko w porządku
    Zakończenie sprawdzania segmentów: 2014-08-31 00:14:05


    Ostatnio edytowane przez xaveq ; 31.08.2014 o 01:42




Zakładki

Zakładki

Uprawnienia

  • Nie możesz zakładać nowych tematów
  • Nie możesz pisać wiadomości
  • Nie możesz dodawać załączników
  • Nie możesz edytować swoich postów
  •  
  • BB Code jest Włączony
  • EmotikonyWłączony
  • [IMG] kod jest Włączony
  • [VIDEO] code is Włączony
  • HTML jest Wyłączony
  • Trackbacki : Wyłączony
  • Pingbacki : Wyłączony
  • Refbacki : Włączony