Poka wyniki od 1 do 1 z 1
  1. #1
    Professional Uploader Avatar L廩n
    Do陰czy
    16.12.2013
    Sk康
    Pary
    Post闚
    5 411
    Postawi
    33
    Piwa otrzymane
    16 407 (4 968)

    PL Snowpiercer: Arka przysz這軼i | 2013 [PL][720p][BRRip]


    Snowpiercer: Arka przysz這軼i (2013)
    Snowpiercer







    Ocena: 6,2/10
    Produkcja: Czechy, Francja, USA, Korea Po逝dniowa,
    Gatunek: Dramat, Akcja, Sci-Fi,
    安iatowa Premiera: 2013-08-01
    Polska Premiera: 2014-04-11
    Re篡seria: Joon-ho Bong
    Zdj璚ia: Kyung-Pyo Hong
    Scenariusz: Joon-ho BongKelly Masterson
    Muzyka: Marco Beltrami
    Czas trwania: 2 godz. 6 min.
    Dystrybucja: Monolith Films
    O filmie: Snowpiercer: Arka przysz這軼i (2013) - Filmweb





    Chris Evans - Curtis
    Kang-ho Song - Namgoong Minsoo
    Ed Harris - Wilford
    John Hurt - Gilliam





    Rok 2031. 安iat przegra walk z globalnym ociepleniem. Na Ziemi zapanowa豉 wieczna zima, a 篡cie uleg這 zag豉dzie. Jedynymi, kt鏎zy przetrwali, s pasa瞠rowie Snowpiercera – p璠z帷ego przez 郾ie積 zamie poci庵u-miasta poruszaj帷ego si dooko豉 globu dzi瘯i rewolucyjnemu silnikowi potrafi帷emu generowa nap璠zaj帷 go energi. Wewn徠rz poci庵u panuje system klasowy. Bogaci pasa瞠rowie luksusowych wagon闚 篡j na koszt biednej wi瘯szo軼i. Wystarczy iskra, by dosz這 do rewolucji.









    Kod:
    Format : AVI
    Format/Info: Audio Video Interleave
    Format profile : OpenDML
    File size: 3.48 GiB
    Duration : 2h 5mn
    Overall bit rate : 3 952 Kbps
    Writing application: VirtualDubMod 1.5.10.3 | www.virtualdub-fr.org || (build 2550/release)
    Writing library: VirtualDubMod build 2550/release
    
    Video
    ID : 0
    Format : MPEG-4 Visual
    Format profile : Advanced [email protected]
    Format settings, BVOP: 2
    Format settings, QPel: No
    Format settings, GMC : No warppoints
    Format settings, Matrix: Default (H.263)
    Codec ID : XVID
    Codec ID/Hint: XviD
    Duration : 2h 5mn
    Bit rate : 3 494 Kbps
    Width: 1 280 pixels
    Height : 688 pixels
    Display aspect ratio : 1.85:1
    Frame rate : 23.976 fps
    Color space: YUV
    Chroma subsampling : 4:2:0
    Bit depth: 8 bits
    Scan type: Progressive
    Compression mode : Lossy
    Bits/(Pixel*Frame) : 0.165
    Stream size: 3.07 GiB (88%)
    Writing library: XviD 1.2.1 (UTC 2008-12-04)
    
    Audio
    ID : 1
    Format : AC-3
    Format/Info: Audio Coding 3
    Mode extension : CM (complete main)
    Format settings, Endianness: Big
    Codec ID : 2000
    Duration : 2h 5mn
    Bit rate mode: Constant
    Bit rate : 448 Kbps
    Channel(s) : 6 channels
    Channel positions: Front: L C R, Side: L R, LFE
    Sampling rate: 48.0 KHz
    Bit depth: 16 bits
    Compression mode : Lossy
    Stream size: 403 MiB (11%)
    Alignment: Split accross interleaves
    Interleave, duration : 42 ms (1.00 video frame)
    Interleave, preload duration : 500 ms


    Nazwa pliku: Snowpiercer.2013.PL.720p.BRRip.XviD.AC3.rar
    Rozmiar pliku: 3811,84 MB
    CRC32: DA94631A
    Liczba segment闚: 451
    Liczba mirror闚: 7
    Uploader: Leon Zawodowiec
    Upload dla: p2m.net.pl





    Poka HC


     

    Zako鎍zenie sprawdzania segment闚: 2014-08-16 22:50:17
    bodziosol




    Ostatnio edytowane przez bodziosol ; 16.08.2014 o 22:51




  2. L廩n upija si na koszt 7 os鏏:

    boruta21 (15.08.2014), flyhaba (24.08.2014), krismej2 (14.08.2014), raf194 (24.08.2014), RoosS (18.08.2014), tinek01 (21.08.2014), W (14.08.2014)

Zak豉dki

Zak豉dki

Uprawnienia

  • Nie mo瞠sz zak豉da nowych temat闚
  • Nie mo瞠sz pisa wiadomo軼i
  • Nie mo瞠sz dodawa za陰cznik闚
  • Nie mo瞠sz edytowa swoich post闚
  •  
  • BB Code jest W陰czony
  • Emotikony s W陰czony
  • [IMG] kod jest W陰czony
  • [VIDEO] code is W陰czony
  • HTML jest Wy陰czony
  • Trackbacki : Wy陰czony
  • Pingbacki : Wy陰czony
  • Refbacki : W陰czony