Poka wyniki od 1 do 1 z 1
  1. #1
    Professional Uploader Avatar L廩n
    Do陰czy
    16.12.2013
    Sk康
    Pary
    Post闚
    5 411
    Postawi
    33
    Piwa otrzymane
    16 407 (4 968)

    OK Snowpiercer: Arka przysz這軼i | 2013 [MULTi][720p][BluRay]


    Snowpiercer: Arka przysz這軼i (2013)
    Snowpiercer







    Ocena: 6,2/10
    Produkcja: Czechy, Francja, USA, Korea Po逝dniowa,
    Gatunek: Dramat, Akcja, Sci-Fi,
    安iatowa Premiera: 2013-08-01
    Polska Premiera: 2014-04-11
    Re篡seria: Joon-ho Bong
    Zdj璚ia: Kyung-Pyo Hong
    Scenariusz: Joon-ho BongKelly Masterson
    Muzyka: Marco Beltrami
    Czas trwania: 2 godz. 6 min.
    Dystrybucja: Monolith Films
    O filmie: Snowpiercer: Arka przysz這軼i (2013) - Filmweb





    Chris Evans - Curtis
    Kang-ho Song - Namgoong Minsoo
    Ed Harris - Wilford
    John Hurt - Gilliam





    Rok 2031. 安iat przegra walk z globalnym ociepleniem. Na Ziemi zapanowa豉 wieczna zima, a 篡cie uleg這 zag豉dzie. Jedynymi, kt鏎zy przetrwali, s pasa瞠rowie Snowpiercera – p璠z帷ego przez 郾ie積 zamie poci庵u-miasta poruszaj帷ego si dooko豉 globu dzi瘯i rewolucyjnemu silnikowi potrafi帷emu generowa nap璠zaj帷 go energi. Wewn徠rz poci庵u panuje system klasowy. Bogaci pasa瞠rowie luksusowych wagon闚 篡j na koszt biednej wi瘯szo軼i. Wystarczy iskra, by dosz這 do rewolucji.









    Kod:
    Format : Matroska
    Format version : Version 4 / Version 2
    File size: 5.85 GiB
    Duration : 2h 5mn
    Overall bit rate : 6 655 Kbps
    Encoded date : UTC 2014-08-13 21:43:30
    Writing application: mkvmerge v6.7.0 ('Back to the Ground') 32bit built on Jan8 2014 15:03:17
    Writing library: libebml v1.3.0 + libmatroska v1.4.1
    
    Video
    ID : 1
    Format : AVC
    Format/Info: Advanced Video Codec
    Format profile : [email protected]
    Format settings, CABAC : Yes
    Format settings, ReFrames: 5 frames
    Codec ID : V_MPEG4/ISO/AVC
    Duration : 2h 5mn
    Bit rate : 4 697 Kbps
    Width: 1 280 pixels
    Height : 688 pixels
    Display aspect ratio : 1.85:1
    Frame rate mode: Constant
    Frame rate : 23.976 fps
    Color space: YUV
    Chroma subsampling : 4:2:0
    Bit depth: 8 bits
    Scan type: Progressive
    Bits/(Pixel*Frame) : 0.222
    Stream size: 4.01 GiB (69%)
    Title: FILM
    Writing library: x264
    Language : English
    Default: Yes
    Forced : No
    
    Audio #1
    ID : 2
    Format : AC-3
    Format/Info: Audio Coding 3
    Mode extension : CM (complete main)
    Format settings, Endianness: Big
    Codec ID : A_AC3
    Duration : 2h 5mn
    Bit rate mode: Constant
    Bit rate : 448 Kbps
    Channel(s) : 6 channels
    Channel positions: Front: L C R, Side: L R, LFE
    Sampling rate: 48.0 KHz
    Bit depth: 16 bits
    Compression mode : Lossy
    Stream size: 403 MiB (7%)
    Title: PL AC3 5.1
    Language : Polish
    Default: Yes
    Forced : No
    
    Audio #2
    ID : 3
    Format : DTS
    Format/Info: Digital Theater Systems
    Mode : 16
    Format settings, Endianness: Big
    Codec ID : A_DTS
    Duration : 2h 5mn
    Bit rate mode: Constant
    Bit rate : 1 509 Kbps
    Channel(s) : 6 channels
    Channel positions: Front: L C R, Side: L R, LFE
    Sampling rate: 48.0 KHz
    Bit depth: 24 bits
    Compression mode : Lossy
    Stream size: 1.33 GiB (23%)
    Title: ENG DTS 5.1
    Language : English
    Default: No
    Forced : No
    
    Text #1
    ID : 4
    Format : UTF-8
    Codec ID : S_TEXT/UTF8
    Codec ID/Info: UTF-8 Plain Text
    Title: PL SUB
    Language : Polish
    Default: No
    Forced : No
    
    Text #2
    ID : 5
    Format : UTF-8
    Codec ID : S_TEXT/UTF8
    Codec ID/Info: UTF-8 Plain Text
    Title: ENG SUB
    Language : English
    Default: No
    Forced : No

    Part 1


    Nazwa pliku: Snowpiercer.2013.MULTI.720p.BluRay.x264.DTS.part1.rar
    Rozmiar pliku: 3850,00 MB
    CRC32: 63AFD483
    Liczba segment闚: 456
    Liczba mirror闚: 9
    Uploader: Leon Zawodowiec
    Upload dla: p2m.net.pl


    Part 2


    Nazwa pliku: Snowpiercer.2013.MULTI.720p.BluRay.x264.DTS.part2.rar
    Rozmiar pliku: 2581,65 MB
    CRC32: B5788F25
    Liczba segment闚: 306
    Liczba mirror闚: 7
    Uploader: Leon Zawodowiec
    Upload dla: p2m.net.pl




    Part 1


    Poka HC


     
    Wszystko w porz康ku
    Zako鎍zenie sprawdzania segment闚: 2014-08-16 22:08:57


    Part 2


    Poka HC


     
    Wszystko w porz康ku
    Zako鎍zenie sprawdzania segment闚: 2014-08-16 22:06:44
    bodziosol




    Ostatnio edytowane przez bodziosol ; 16.08.2014 o 23:10




  2. L廩n upija si na koszt 6 os鏏:

    CGrze (18.08.2014), herbertbmw (23.09.2014), pszemchu (24.08.2014), tinek01 (19.08.2014), treben (16.08.2014), W (15.08.2014)

Zak豉dki

Zak豉dki

Uprawnienia

  • Nie mo瞠sz zak豉da nowych temat闚
  • Nie mo瞠sz pisa wiadomo軼i
  • Nie mo瞠sz dodawa za陰cznik闚
  • Nie mo瞠sz edytowa swoich post闚
  •  
  • BB Code jest W陰czony
  • Emotikony s W陰czony
  • [IMG] kod jest W陰czony
  • [VIDEO] code is W陰czony
  • HTML jest Wy陰czony
  • Trackbacki : Wy陰czony
  • Pingbacki : Wy陰czony
  • Refbacki : W陰czony