Pokaż wyniki od 1 do 1 z 1
  1. #1
    Member Avatar Kot Behemot
    Dołączył
    20.07.2007
    Postów
    1 179
    Postawił
    0
    Piwa otrzymane
    2 792 (998)

    PL 13 grzechów | 2014 | PL | AC3 | 720p | BRRip | XviD


    13 grzechów (2014)
    13 Sins










    Ocena: 6,0/10
    Produkcja: USA,
    Gatunek: Thriller,
    Światowa Premiera: 2014-03-07
    Polska Premiera: 2014-04-11
    Reżyseria: Daniel Stamm
    Zdjęcia: Zoltán Honti
    Scenariusz: David BirkeDaniel Stamm
    Muzyka: Michael Wandmacher
    Czas trwania: 1 godz. 28 min.
    Dystrybucja: Kino Świat
    O filmie: 13 grzechów (2014) - Filmweb







    Mark Webber - Elliot
    Devon Graye - Michael
    Tom Bower - Ojciec
    Rutina Wesley - Shelby







    Eliot jest pogrążony w długach i wszystko wskazuje na to, że nie prędko uda mu się je spłacić. Pieniądze są mu potrzebne jednak bardziej niż kiedykolwiek – wkrótce ma zamiar poślubić miłość swojego życia. Pewnego dnia odbiera telefon. Tajemniczy głos informuje go, że jest filmowany przez ukryte kamery i bierze udział w grze. Jeżeli Eliot wykona 13 zadań, wówczas wygra 6,2 miliona dolarów. Pierwsze zadanie jest proste – zabić muchę latającą po pokoju. Jednak każde następne z[span class="fullText hide"]pozostałych 12 to kolejny krok bliżej piekła. Już wkrótce Eliot przekona się, że może dopuścić się najbardziej przerażających i ekstremalnych zachowań. Wkrótce nie będzie już powrotu.













    Kod:
    Format : AVI
    Format/Info: Audio Video Interleave
    Format profile : OpenDML
    File size: 2.21 GiB
    Duration : 1h 32mn
    Overall bit rate : 3 414 Kbps
    Writing application: VirtualDubMod 1.5.10.2 (build 2540/release)
    Writing library: VirtualDubMod build 2540/release
    
    
    Video
    ID : 0
    Format : MPEG-4 Visual
    Format profile : Advanced [email protected]
    Format settings, BVOP: 2
    Format settings, QPel: No
    Format settings, GMC : No warppoints
    Format settings, Matrix: Default (H.263)
    Codec ID : XVID
    Codec ID/Hint: XviD
    Duration : 1h 32mn
    Bit rate : 3 210 Kbps
    Width: 1 280 pixels
    Height : 536 pixels
    Display aspect ratio : 2.40:1
    Frame rate : 23.976 fps
    Color space: YUV
    Chroma subsampling : 4:2:0
    Bit depth: 8 bits
    Scan type: Progressive
    Compression mode : Lossy
    Bits/(Pixel*Frame) : 0.195
    Stream size: 2.07 GiB (94%)
    Writing library: XviD 1.2.1 (UTC 2008-12-04)
    
    
    Audio
    ID : 1
    Format : AC-3
    Format/Info: Audio Coding 3
    Mode extension : CM (complete main)
    Format settings, Endianness: Big
    Codec ID : 2000
    Duration : 1h 32mn
    Bit rate mode: Constant
    Bit rate : 192 Kbps
    Channel(s) : 2 channels
    Channel positions: Front: L R
    Sampling rate: 48.0 KHz
    Bit depth: 16 bits
    Compression mode : Lossy
    Stream size: 127 MiB (6%)
    Alignment: Split accross interleaves
    Interleave, duration : 42 ms (1.00 video frame)
    Interleave, preload duration : 500 ms


    Nazwa pliku: 13.Sins.2014.PL.AC3.720p.BRRip.XviD.avi
    Rozmiar pliku: 2259,73 MB
    CRC32: 9481DF30
    Liczba segmentów: 323
    Liczba mirrorów: 8
    Uploader: Kot Behemot
    Upload dla: p2m.net.pl







    Pokaż HC

     
    Braki:

    Zakończenie sprawdzania segmentów: 2014-08-16 18:13:16



    Ostatnio edytowane przez Markus* ; 16.08.2014 o 19:16

  2. Kot Behemot upija się na koszt 11 osób:

    11bioly (23.08.2014), Anka (17.08.2014), boruta21 (16.08.2014), kl3ryk (20.08.2014), Lewis (22.08.2014), marcco (17.08.2014), nando12 (20.08.2014), raf194 (24.08.2014), tinek01 (19.08.2014), W (16.08.2014), zanik (21.08.2014)

Zakładki

Zakładki

Uprawnienia

  • Nie możesz zakładać nowych tematów
  • Nie możesz pisać wiadomości
  • Nie możesz dodawać załączników
  • Nie możesz edytować swoich postów
  •  
  • BB Code jest Włączony
  • EmotikonyWłączony
  • [IMG] kod jest Włączony
  • [VIDEO] code is Włączony
  • HTML jest Wyłączony
  • Trackbacki : Wyłączony
  • Pingbacki : Wyłączony
  • Refbacki : Włączony