Pokaż wyniki od 1 do 1 z 1
  1. #1
    Professional Uploader Avatar Léon
    Dołączył
    16.12.2013
    Skąd
    Paryż
    Postów
    5 411
    Postawił
    33
    Piwa otrzymane
    16 406 (4 968)

    OK Turecki dla początkujących | 2012 [MULTi][720p][BluRay]


    Turecki dla początkujących (2012)
    Türkisch für Anfänger







    Ocena: 6,4/10
    Produkcja: Niemcy, USA,
    Gatunek: Komedia, Akcja,
    Światowa Premiera: 2012-03-15
    Polska Premiera: b/d
    Reżyseria: Bora Dagtekin
    Zdjęcia: Torsten Breuer , Benjamin Dernbecher
    Scenariusz: Bora DagtekinAndy Raymer
    Muzyka: Heiko Maile , Beckmann
    Czas trwania: 1 godz. 45 min.
    Dystrybucja: b/d
    O filmie: Turecki dla początkujących (2012) - Filmweb





    Katja Riemann - Uschi
    Elyas M'Barek - Cem Öztürk
    Josefine Preuß - Lena Schneider
    Frederick Lau - Frieder





    Lena Schneider (Josefine Preuss), mimo że ma 19 lat, wciąż pozostaje pod kontrolą apodyktycznej matki (Anna Stieblich), z zawodu psychoterapeutki. Kobieta wysyła zbuntowaną nastolatkę na wakacje do Azji Południowo-Wschodniej. W samolocie Lena poznaje młodego Turka, Cema Öztürka (Elyas M'Barek), który zachowuje się jak macho i irytuje dziewczynę.









    Kod:
    Format : Matroska
    Format version : Version 4 / Version 2
    File size: 5.71 GiB
    Duration : 1h 48mn
    Overall bit rate : 7 526 Kbps
    Encoded date : UTC 2014-08-14 22:23:52
    Writing application: mkvmerge v6.7.0 ('Back to the Ground') 32bit built on Jan8 2014 15:03:17
    Writing library: libebml v1.3.0 + libmatroska v1.4.1
    
    Video
    ID : 1
    Format : AVC
    Format/Info: Advanced Video Codec
    Format profile : [email protected]
    Format settings, CABAC : Yes
    Format settings, ReFrames: 4 frames
    Codec ID : V_MPEG4/ISO/AVC
    Duration : 1h 48mn
    Bit rate : 5 761 Kbps
    Width: 1 280 pixels
    Height : 544 pixels
    Display aspect ratio : 2.35:1
    Frame rate mode: Constant
    Frame rate : 24.000 fps
    Color space: YUV
    Chroma subsampling : 4:2:0
    Bit depth: 8 bits
    Scan type: Progressive
    Bits/(Pixel*Frame) : 0.345
    Stream size: 4.26 GiB (75%)
    Title: FILM
    Writing library: x264 
    Language : German
    Default: Yes
    Forced : No
    
    Audio #1
    ID : 2
    Format : AC-3
    Format/Info: Audio Coding 3
    Mode extension : CM (complete main)
    Format settings, Endianness: Big
    Codec ID : A_AC3
    Duration : 1h 48mn
    Bit rate mode: Constant
    Bit rate : 256 Kbps
    Channel(s) : 2 channels
    Channel positions: Front: L R
    Sampling rate: 48.0 KHz
    Bit depth: 16 bits
    Compression mode : Lossy
    Stream size: 199 MiB (3%)
    Title: PL AUDIO
    Language : Polish
    Default: Yes
    Forced : No
    
    Audio #2
    ID : 3
    Format : DTS
    Format/Info: Digital Theater Systems
    Mode : 16
    Format settings, Endianness: Big
    Codec ID : A_DTS
    Duration : 1h 48mn
    Bit rate mode: Constant
    Bit rate : 1 509 Kbps
    Channel(s) : 6 channels
    Channel positions: Front: L C R, Side: L R, LFE
    Sampling rate: 48.0 KHz
    Bit depth: 24 bits
    Compression mode : Lossy
    Stream size: 1.15 GiB (20%)
    Title: GER DTS 5.1
    Language : German
    Default: No
    Forced : No
    
    Text
    ID : 4
    Format : UTF-8
    Codec ID : S_TEXT/UTF8
    Codec ID/Info: UTF-8 Plain Text
    Title: ENG SUB
    Language : English
    Default: No
    Forced : No

    Part 1


    Nazwa pliku: Tuerkisch.fuer.Anfaenger.2012.MULTI.720p.BluRay.x264.DTS.part1.rar
    Rozmiar pliku: 3850,00 MB
    CRC32: E957F896
    Liczba segmentów: 454
    Liczba mirrorów: 9
    Uploader: Leon Zawodowiec
    Upload dla: p2m.net.pl


    Part 2


    Nazwa pliku: Tuerkisch.fuer.Anfaenger.2012.MULTI.720p.BluRay.x264.DTS.part2.rar
    Rozmiar pliku: 2417,94 MB
    CRC32: C085684D
    Liczba segmentów: 285
    Liczba mirrorów: 8
    Uploader: Leon Zawodowiec
    Upload dla: p2m.net.pl




    Part 1


    Pokaż HC

     
    Wszystko w porządku
    Zakończenie sprawdzania segmentów: 2014-08-16 17:59:39

    Part 2


    Pokaż HC

     
    Wszystko w porządku
    Zakończenie sprawdzania segmentów: 2014-08-16 17:59:39


    Ostatnio edytowane przez Markus* ; 16.08.2014 o 19:02




  2. Léon upija się na koszt:

    W (16.08.2014)

Zakładki

Zakładki

Uprawnienia

  • Nie możesz zakładać nowych tematów
  • Nie możesz pisać wiadomości
  • Nie możesz dodawać załączników
  • Nie możesz edytować swoich postów
  •  
  • BB Code jest Włączony
  • EmotikonyWłączony
  • [IMG] kod jest Włączony
  • [VIDEO] code is Włączony
  • HTML jest Wyłączony
  • Trackbacki : Wyłączony
  • Pingbacki : Wyłączony
  • Refbacki : Włączony