Pokaż wyniki od 1 do 1 z 1
  1. #1
    Professional Uploader Avatar Léon
    Dołączył
    16.12.2013
    Skąd
    Paryż
    Postów
    5 411
    Postawił
    33
    Piwa otrzymane
    16 407 (4 968)

    PL Sierpień w hrabstwie Osage | 2013 [PL][720p][BluRay]


    Sierpień w hrabstwie Osage (2013)
    August: Osage County







    Ocena: 7,5/10
    Produkcja: USA,
    Gatunek: Dramat, Komedia,
    Światowa Premiera: 2013-09-09
    Polska Premiera: 2014-01-24
    Reżyseria: John Wells
    Zdjęcia: Adriano Goldman
    Scenariusz: Tracy Letts
    Muzyka: Gustavo Santaolalla
    Czas trwania: 2 godz. 1 min.
    Dystrybucja: Forum Film Poland Sp. z o.o.
    O filmie: Sierpień w hrabstwie Osage (2013) - Filmweb





    Meryl Streep - Violet Weston
    Julia Roberts - Barbara Weston
    Ewan McGregor - Bill Fordham
    Julianne Nicholson - Ivy Weston





    Komedia obyczajowa "Sierpień w hrabstwie Osage" to zabarwione sarkastycznym humorem spojrzenie na trudną relację matki (Meryl Streep) i jej trzech dorosłych córek (Julia Roberts, Juliette Lewis, Julianne Nicholson), które opuściły rodzinny dom, dystansując się od bliskich i od przeszłości. Pewnego dnia powracają i muszą zmierzyć się z emocjami, które niegdyś doprowadziły do niezgody. To film, który nie unikając wzruszeń opowiada uniwersalną historię o rodzinnych więzach. Jest[span class="fullText hide"]w nim przejmująca prawda, ale także wielka nadzieja na to, że wspólnie przeżywany kryzys stanie się dla bohaterek początkiem rozwiązania konfliktów z przeszłości.









    Kod:
    Format : Matroska
    Format version : Version 4 / Version 2
    File size: 4.61 GiB
    Duration : 2h 0mn
    Overall bit rate : 5 461 Kbps
    Encoded date : UTC 2014-05-28 14:38:05
    Writing application: mkvmerge v6.8.0 ('Theme for Great Cities') 64bit built on Mar2 2014 21:34:26
    Writing library: libebml v1.3.0 + libmatroska v1.4.1
    
    Video
    ID : 1
    Format : AVC
    Format/Info: Advanced Video Codec
    Format profile : [email protected]
    Format settings, CABAC : Yes
    Format settings, ReFrames: 11 frames
    Codec ID : V_MPEG4/ISO/AVC
    Duration : 2h 0mn
    Bit rate : 5 015 Kbps
    Width: 1 280 pixels
    Height : 536 pixels
    Display aspect ratio : 2.40:1
    Frame rate mode: Constant
    Frame rate : 24.000 fps
    Color space: YUV
    Chroma subsampling : 4:2:0
    Bit depth: 8 bits
    Scan type: Progressive
    Bits/(Pixel*Frame) : 0.305
    Stream size: 4.14 GiB (90%)
    Title: K12
    Writing library: x264 
    Default: Yes
    Forced : No
    
    Audio
    ID : 2
    Format : AC-3
    Format/Info: Audio Coding 3
    Mode extension : CM (complete main)
    Format settings, Endianness: Big
    Codec ID : A_AC3
    Duration : 2h 0mn
    Bit rate mode: Constant
    Bit rate : 448 Kbps
    Channel(s) : 6 channels
    Channel positions: Front: L C R, Side: L R, LFE
    Sampling rate: 48.0 KHz
    Bit depth: 16 bits
    Compression mode : Lossy
    Stream size: 387 MiB (8%)
    Title: K12
    Language : Polish
    Default: Yes
    Forced : No

    Part 1


    Nazwa pliku: August.Osage.County.2013.PL.720p.BluRay.x264.AC3.part1.rar
    Rozmiar pliku: 3850,00 MB
    CRC32: 011B8C0D
    Liczba segmentów: 452
    Liczba mirrorów: 7
    Uploader: Leon Zawodowiec
    Upload dla: p2m.net.pl


    Part 2


    Nazwa pliku: August.Osage.County.2013.PL.720p.BluRay.x264.AC3.part2.rar
    Rozmiar pliku: 1254,40 MB
    CRC32: AE23D88C
    Liczba segmentów: 149
    Liczba mirrorów: 7
    Uploader: Leon Zawodowiec
    Upload dla: p2m.net.pl




    Part 1


    Pokaż HC

     
    Wszystko w porządku
    Zakończenie sprawdzania segmentów: 2014-08-20 17:18:05

    Part 2


    Pokaż HC

     
    Wszystko w porządku
    Zakończenie sprawdzania segmentów: 2014-08-20 17:18:05


    Ostatnio edytowane przez Markus* ; 20.08.2014 o 17:26




  2. Léon upija się na koszt:

    W (19.08.2014)

Zakładki

Zakładki

Uprawnienia

  • Nie możesz zakładać nowych tematów
  • Nie możesz pisać wiadomości
  • Nie możesz dodawać załączników
  • Nie możesz edytować swoich postów
  •  
  • BB Code jest Włączony
  • EmotikonyWłączony
  • [IMG] kod jest Włączony
  • [VIDEO] code is Włączony
  • HTML jest Wyłączony
  • Trackbacki : Wyłączony
  • Pingbacki : Wyłączony
  • Refbacki : Włączony