Pokaż wyniki od 1 do 1 z 1
  1. #1
    Professional Uploader Avatar Léon
    Dołączył
    16.12.2013
    Skąd
    Paryż
    Postów
    5 411
    Postawił
    33
    Piwa otrzymane
    16 406 (4 968)

    OK Swelter | 2014 [MULTi][720p][BluRay]


    Swelter (2014)







    Ocena: 4,5/10
    Produkcja: USA,
    Gatunek: Akcja,
    Światowa Premiera: 2014-01-15
    Polska Premiera: b/d
    Reżyseria: Keith Parmer
    Zdjęcia: Michael Mayers
    Scenariusz: Keith Parmer
    Muzyka:
    Czas trwania: 1 godz. 23 min.
    Dystrybucja: b/d
    O filmie: Miasto odkupienia (2014) - Filmweb





    Lennie James - Bishop
    Jean-Claude Van Damme - Stillman
    Josh Henderson - Halle





    Czterech zbiegłych więźniów dociera do małego miasteczka w Kalifornii, by odnaleźć dawnego członka ich grupy, który przed laty uniknął kary i uciekł z częścią zrabowanych pieniędzy.









    Kod:
    Format : Matroska
    Format version : Version 2
    File size: 4.80 GiB
    Duration : 1h 36mn
    Overall bit rate : 7 152 Kbps
    Encoded date : UTC 2014-08-19 11:29:03
    Writing application: mkvmerge v5.2.1 ('A Far Off Place') built on Jan2 2012 23:21:10
    Writing library: libebml v1.2.3 + libmatroska v1.3.0
    
    Video
    ID : 1
    Format : AVC
    Format/Info: Advanced Video Codec
    Format profile : [email protected]
    Format settings, CABAC : Yes
    Format settings, ReFrames: 5 frames
    Muxing mode: Header stripping
    Codec ID : V_MPEG4/ISO/AVC
    Duration : 1h 36mn
    Bit rate : 5 006 Kbps
    Width: 1 280 pixels
    Height : 536 pixels
    Display aspect ratio : 2.40:1
    Frame rate mode: Constant
    Frame rate : 25.000 fps
    Color space: YUV
    Chroma subsampling : 4:2:0
    Bit depth: 8 bits
    Scan type: Progressive
    Bits/(Pixel*Frame) : 0.292
    Stream size: 3.26 GiB (68%)
    Title: FILM
    Writing library: x264 
    Language : English
    Default: Yes
    Forced : No
    
    Audio #1
    ID : 2
    Format : AC-3
    Format/Info: Audio Coding 3
    Mode extension : CM (complete main)
    Format settings, Endianness: Big
    Muxing mode: Header stripping
    Codec ID : A_AC3
    Duration : 1h 36mn
    Bit rate mode: Constant
    Bit rate : 640 Kbps
    Channel(s) : 6 channels
    Channel positions: Front: L C R, Side: L R, LFE
    Sampling rate: 48.0 KHz
    Bit depth: 16 bits
    Compression mode : Lossy
    Stream size: 440 MiB (9%)
    Title: PL AC3 5.1
    Language : Polish
    Default: Yes
    Forced : No
    
    Audio #2
    ID : 3
    Format : DTS
    Format/Info: Digital Theater Systems
    Mode : 16
    Format settings, Endianness: Big
    Muxing mode: Header stripping
    Codec ID : A_DTS
    Duration : 1h 36mn
    Bit rate mode: Constant
    Bit rate : 1 509 Kbps
    Channel(s) : 6 channels
    Channel positions: Front: L C R, Side: L R, LFE
    Sampling rate: 48.0 KHz
    Bit depth: 24 bits
    Compression mode : Lossy
    Stream size: 1.01 GiB (21%)
    Title: ENG DTS 5.1
    Language : English
    Default: No
    Forced : No
    
    Text #1
    ID : 4
    Format : UTF-8
    Codec ID : S_TEXT/UTF8
    Codec ID/Info: UTF-8 Plain Text
    Title: PL SUB
    Language : Polish
    Default: No
    Forced : No
    
    Text #2
    ID : 5
    Format : UTF-8
    Codec ID : S_TEXT/UTF8
    Codec ID/Info: UTF-8 Plain Text
    Title: ENG SUB
    Language : English
    Default: No
    Forced : No

    Part 1


    Nazwa pliku: Swelter.2014.MULTI.720p.BluRay.x264.DTS.part1.rar
    Rozmiar pliku: 3850,00 MB
    CRC32: 02F6CC20
    Liczba segmentów: 452
    Liczba mirrorów: 9
    Uploader: Leon Zawodowiec
    Upload dla: p2m.net.pl


    Part 2


    Nazwa pliku: Swelter.2014.MULTI.720p.BluRay.x264.DTS.part2.rar
    Rozmiar pliku: 1405,82 MB
    CRC32: 94B78758
    Liczba segmentów: 167
    Liczba mirrorów: 8
    Uploader: Leon Zawodowiec
    Upload dla: p2m.net.pl




    Part 1


    Pokaż HC

     
    Wszystko w porządku
    Zakończenie sprawdzania segmentów: 2014-08-20 17:29:03

    Part 2


    Pokaż HC

     
    Wszystko w porządku
    Zakończenie sprawdzania segmentów: 2014-08-20 17:29:03


    Ostatnio edytowane przez Markus* ; 20.08.2014 o 18:31




  2. Léon upija się na koszt:

    W (20.08.2014)

Zakładki

Zakładki

Uprawnienia

  • Nie możesz zakładać nowych tematów
  • Nie możesz pisać wiadomości
  • Nie możesz dodawać załączników
  • Nie możesz edytować swoich postów
  •  
  • BB Code jest Włączony
  • EmotikonyWłączony
  • [IMG] kod jest Włączony
  • [VIDEO] code is Włączony
  • HTML jest Wyłączony
  • Trackbacki : Wyłączony
  • Pingbacki : Wyłączony
  • Refbacki : Włączony