Pokaż wyniki od 1 do 1 z 1
  1. #1
    Professional Uploader Avatar Léon
    Dołączył
    16.12.2013
    Skąd
    Paryż
    Postów
    5 411
    Postawił
    33
    Piwa otrzymane
    16 406 (4 968)

    OK Swelter | 2014 [MULTi][1080p][BluRay]


    Swelter (2014)







    Ocena: 4,5/10
    Produkcja: USA,
    Gatunek: Akcja,
    Światowa Premiera: 2014-01-15
    Polska Premiera: b/d
    Reżyseria: Keith Parmer
    Zdjęcia: Michael Mayers
    Scenariusz: Keith Parmer
    Muzyka:
    Czas trwania: 1 godz. 23 min.
    Dystrybucja: b/d
    O filmie: Miasto odkupienia (2014) - Filmweb





    Lennie James - Bishop
    Jean-Claude Van Damme - Stillman
    Josh Henderson - Halle





    Czterech zbiegłych więźniów dociera do małego miasteczka w Kalifornii, by odnaleźć dawnego członka ich grupy, który przed laty uniknął kary i uciekł z częścią zrabowanych pieniędzy.









    Kod:
    Format : Matroska
    Format version : Version 4 / Version 2
    File size: 7.36 GiB
    Duration : 1h 36mn
    Overall bit rate : 11.0 Mbps
    Encoded date : UTC 2014-08-20 10:08:09
    Writing application: mkvmerge v6.7.0 ('Back to the Ground') 32bit built on Jan8 2014 15:03:17
    Writing library: libebml v1.3.0 + libmatroska v1.4.1
    
    Video
    ID : 1
    Format : AVC
    Format/Info: Advanced Video Codec
    Format profile : [email protected]
    Format settings, CABAC : Yes
    Format settings, ReFrames: 5 frames
    Codec ID : V_MPEG4/ISO/AVC
    Duration : 1h 36mn
    Bit rate : 8 830 Kbps
    Width: 1 920 pixels
    Height : 800 pixels
    Display aspect ratio : 2.40:1
    Frame rate mode: Constant
    Frame rate : 25.000 fps
    Color space: YUV
    Chroma subsampling : 4:2:0
    Bit depth: 8 bits
    Scan type: Progressive
    Bits/(Pixel*Frame) : 0.230
    Stream size: 5.78 GiB (78%)
    Title: FILM
    Writing library: x264 
    Language : English
    Default: Yes
    Forced : No
    
    Audio #1
    ID : 2
    Format : AC-3
    Format/Info: Audio Coding 3
    Mode extension : CM (complete main)
    Format settings, Endianness: Big
    Codec ID : A_AC3
    Duration : 1h 36mn
    Bit rate mode: Constant
    Bit rate : 640 Kbps
    Channel(s) : 6 channels
    Channel positions: Front: L C R, Side: L R, LFE
    Sampling rate: 48.0 KHz
    Bit depth: 16 bits
    Compression mode : Lossy
    Stream size: 440 MiB (6%)
    Title: PL AC3 5.1
    Language : Polish
    Default: Yes
    Forced : No
    
    Audio #2
    ID : 3
    Format : DTS
    Format/Info: Digital Theater Systems
    Mode : 16
    Format settings, Endianness: Big
    Codec ID : A_DTS
    Duration : 1h 36mn
    Bit rate mode: Constant
    Bit rate : 1 509 Kbps
    Channel(s) : 6 channels
    Channel positions: Front: L C R, Side: L R, LFE
    Sampling rate: 48.0 KHz
    Bit depth: 24 bits
    Compression mode : Lossy
    Stream size: 1.01 GiB (14%)
    Title: ENG DTS 5.1
    Language : English
    Default: No
    Forced : No
    
    Text #1
    ID : 4
    Format : UTF-8
    Codec ID : S_TEXT/UTF8
    Codec ID/Info: UTF-8 Plain Text
    Title: PL SUB
    Language : Polish
    Default: No
    Forced : No
    
    Text #2
    ID : 5
    Format : UTF-8
    Codec ID : S_TEXT/UTF8
    Codec ID/Info: UTF-8 Plain Text
    Title: ENG SUB
    Language : English
    Default: No
    Forced : No

    Part 1


    Nazwa pliku: Swelter.2014.MULTI.1080p.BluRay.x264.DTS.part1.rar
    Rozmiar pliku: 3450,00 MB
    CRC32: B156D71F
    Liczba segmentów: 410
    Liczba mirrorów: 7
    Uploader: Leon Zawodowiec
    Upload dla: p2m.net.pl


    Part 2


    Nazwa pliku: Swelter.2014.MULTI.1080p.BluRay.x264.DTS.part2.rar
    Rozmiar pliku: 3450,00 MB
    CRC32: 6CB00D53
    Liczba segmentów: 409
    Liczba mirrorów: 7
    Uploader: Leon Zawodowiec
    Upload dla: p2m.net.pl


    Part 3


    Nazwa pliku: Swelter.2014.MULTI.1080p.BluRay.x264.DTS.part3.rar
    Rozmiar pliku: 1241,16 MB
    CRC32: 8609689C
    Liczba segmentów: 146
    Liczba mirrorów: 7
    Uploader: Leon Zawodowiec
    Upload dla: p2m.net.pl




    Part 1


    Pokaż HC

     
    Braki:

    Zakończenie sprawdzania segmentów: 2014-08-23 19:51:17

    Part 2


    Pokaż HC

     
    Braki:

    Zakończenie sprawdzania segmentów: 2014-08-23 19:53:22

    Part 3


    Pokaż HC

     
    Wszystko w porządku
    Zakończenie sprawdzania segmentów: 2014-08-23 19:57:33


    Ostatnio edytowane przez Markus* ; 23.08.2014 o 20:59




  2. Léon upija się na koszt 2 osób:

    11bioly (23.08.2014), W (21.08.2014)

Zakładki

Zakładki

Uprawnienia

  • Nie możesz zakładać nowych tematów
  • Nie możesz pisać wiadomości
  • Nie możesz dodawać załączników
  • Nie możesz edytować swoich postów
  •  
  • BB Code jest Włączony
  • EmotikonyWłączony
  • [IMG] kod jest Włączony
  • [VIDEO] code is Włączony
  • HTML jest Wyłączony
  • Trackbacki : Wyłączony
  • Pingbacki : Wyłączony
  • Refbacki : Włączony