Pokaż wyniki od 1 do 1 z 1
  1. #1
    VIP Avatar Mikson
    Dołączył
    22.05.2010
    Skąd
    Nibylandia
    Postów
    67
    Postawił
    17
    Piwa otrzymane
    213 (76)

    OK Pod dnem | 2013 | [MULTI] [1080p] [BluRay]


    Pod dnem (2013)
    Pionér










    Ocena: 6,0/10
    Produkcja: Finlandia, Francja, Niemcy, Norwegia, Szwecja,
    Gatunek: Thriller,
    Światowa Premiera: 2013-08-30
    Polska Premiera: b/d
    Reżyseria: Erik Skjoldbjćrg
    Zdjęcia: Jallo Faber
    Scenariusz: Hans GunnarssonCathinka NicolaysenKathrine ValenNikolaj FrobeniusErik Skjoldbjćrg
    Muzyka:
    Czas trwania: 1 godz. 40 min.
    Dystrybucja: b/d
    O filmie: Pod dnem (2013) - Filmweb







    Aksel Hennie - Peder
    Wes Bentley - Mike
    Stephen Lang - Ferris
    Jonathan LaPaglia - Ronald







    Początek lat 80-tych. W Norwegii rozpoczyna się boom na ropę oraz gaz wydobywany z morza. Petter, który jest profesjonalny nurkiem podejmuje się bardzo ryzykownego zadania.













    Kod:
    Format : Matroska
    Format version : Version 4 / Version 2
    File size: 8.78 GiB
    Duration : 1h 51mn
    Overall bit rate : 11.3 Mbps
    Movie name : WiZARDS 1080p
    Encoded date : UTC 2014-08-29 19:57:05
    Writing application: mkvmerge v6.7.0 ('Back to the Ground') 32bit built on Jan8 2014 15:03:17
    Writing library: libebml v1.3.0 + libmatroska v1.4.1
    
    
    Video
    ID : 1
    Format : AVC
    Format/Info: Advanced Video Codec
    Format profile : [email protected]
    Format settings, CABAC : Yes
    Format settings, ReFrames: 5 frames
    Codec ID : V_MPEG4/ISO/AVC
    Duration : 1h 51mn
    Bit rate : 9 313 Kbps
    Width: 1 920 pixels
    Height : 800 pixels
    Display aspect ratio : 2.40:1
    Frame rate mode: Constant
    Frame rate : 24.000 fps
    Color space: YUV
    Chroma subsampling : 4:2:0
    Bit depth: 8 bits
    Scan type: Progressive
    Bits/(Pixel*Frame) : 0.253
    Stream size: 7.24 GiB (82%)
    Title: FILM
    Language : English
    Default: Yes
    Forced : No
    
    
    Audio #1
    ID : 2
    Format : AC-3
    Format/Info: Audio Coding 3
    Mode extension : CM (complete main)
    Format settings, Endianness: Big
    Codec ID : A_AC3
    Duration : 1h 51mn
    Bit rate mode: Constant
    Bit rate : 256 Kbps
    Channel(s) : 2 channels
    Channel positions: Front: L R
    Sampling rate: 48.0 KHz
    Bit depth: 16 bits
    Compression mode : Lossy
    Stream size: 204 MiB (2%)
    Title: PL AUDIO
    Language : Polish
    Default: Yes
    Forced : No
    
    
    Audio #2
    ID : 3
    Format : DTS
    Format/Info: Digital Theater Systems
    Mode : 16
    Format settings, Endianness: Big
    Codec ID : A_DTS
    Duration : 1h 51mn
    Bit rate mode: Constant
    Bit rate : 1 509 Kbps
    Channel(s) : 6 channels
    Channel positions: Front: L C R, Side: L R, LFE
    Sampling rate: 48.0 KHz
    Bit depth: 24 bits
    Compression mode : Lossy
    Stream size: 1.17 GiB (13%)
    Title: NOR DTS 5.1
    Language : Norwegian
    Default: No
    Forced : No
    
    
    Text #1
    ID : 4
    Format : UTF-8
    Codec ID : S_TEXT/UTF8
    Codec ID/Info: UTF-8 Plain Text
    Title: PL SUB
    Language : Polish
    Default: No
    Forced : No
    
    
    Text #2
    ID : 5
    Format : UTF-8
    Codec ID : S_TEXT/UTF8
    Codec ID/Info: UTF-8 Plain Text
    Title: ENG SUB
    Language : English
    Default: No
    Forced : No

    Part 1


    Nazwa pliku: Pioneer.2013.MULTI.1080p.BluRay.x264.DTS.part1.rar
    Rozmiar pliku: 3850,00 MB
    CRC32: 435B832E
    Liczba segmentów: 451
    Liczba mirrorów: 6
    Uploader: Mikson
    Upload dla: p2m.net.pl



    Part 2


    Nazwa pliku: Pioneer.2013.MULTI.1080p.BluRay.x264.DTS.part2.rar
    Rozmiar pliku: 3850,00 MB
    CRC32: 5E7ACD70
    Liczba segmentów: 455
    Liczba mirrorów: 6
    Uploader: Mikson
    Upload dla: p2m.net.pl



    Part 3


    Nazwa pliku: Pioneer.2013.MULTI.1080p.BluRay.x264.DTS.part3.rar
    Rozmiar pliku: 1929,26 MB
    CRC32: 9BAAFAF7
    Liczba segmentów: 227
    Liczba mirrorów: 6
    Uploader: Mikson
    Upload dla: p2m.net.pl






    Part 1


    Pokaż HC

     
    Wszystko w porządku
    Zakończenie sprawdzania segmentów: 2014-08-31 17:24:55

    Part 2


    Pokaż HC

     
    Wszystko w porządku
    Zakończenie sprawdzania segmentów: 2014-08-31 17:28:34

    Part 3


    Pokaż HC

     
    Wszystko w porządku
    Zakończenie sprawdzania segmentów: 2014-08-31 17:30:19


    Ostatnio edytowane przez xaveq ; 31.08.2014 o 18:34

  2. Mikson upija się na koszt:

    W (31.08.2014)

Zakładki

Zakładki

Uprawnienia

  • Nie możesz zakładać nowych tematów
  • Nie możesz pisać wiadomości
  • Nie możesz dodawać załączników
  • Nie możesz edytować swoich postów
  •  
  • BB Code jest Włączony
  • EmotikonyWłączony
  • [IMG] kod jest Włączony
  • [VIDEO] code is Włączony
  • HTML jest Wyłączony
  • Trackbacki : Wyłączony
  • Pingbacki : Wyłączony
  • Refbacki : Włączony