Poka wyniki od 1 do 1 z 1
  1. #1
    Professional Uploader Avatar L廩n
    Do陰czy
    16.12.2013
    Sk康
    Pary
    Post闚
    5 411
    Postawi
    33
    Piwa otrzymane
    16 404 (4 968)

    PL & ENG Milion sposob闚, jak zgin望 na Zachodzie | 2014 [MULTi][1080p][BluRay]


    Milion sposob闚, jak zgin望 na Zachodzie (2014)
    A Million Ways to Die in the West







    Ocena: 6,3/10
    Produkcja: USA,
    Gatunek: Komedia, Western,
    安iatowa Premiera: 2014-05-29
    Polska Premiera: 2014-05-30
    Re篡seria: Seth MacFarlane
    Zdj璚ia: Michael Barrett
    Scenariusz: Seth MacFarlaneAlec SulkinWellesley Wild
    Muzyka: Joel McNeely
    Czas trwania: 1 godz. 54 min.
    Dystrybucja: United International Pictures Sp z o.o.
    O filmie: Milion sposob闚, jak zgin望 na Zachodzie (2014) - Filmweb





    Seth MacFarlane - Albert
    Charlize Theron - Anna
    Amanda Seyfried - Louise
    Liam Neeson - Clinch





    "Milion sposob闚, jak zgin望 na Zachodzie" to opowie軼i o Albercie, tch鏎zliwym hodowcy owiec. Gdy Albert wykr璚i si od uczestnictwa w tradycyjnej strzelaninie, jego kapry郾a dziewczyna rzuci豉 go dla innego. Tajemnicza nieznajoma, kt鏎a w豉郾ie przyby豉 do miasta, pomog豉 Albertowi odzyska wiar w siebie, a co wi璚ej para zacz窸a mie si ku sobie. Niestety, w mie軼ie zjawi si r闚nie m捫 kobiety, notoryczny przest瘼ca, dysz帷 膨dz zemsty. I oto Albert musi przetestowa 鈍ie穎 odzyskan odwag.









    Kod:
    Format : Matroska
    Format version : Version 4 / Version 2
    File size: 12.1 GiB
    Duration : 1h 56mn
    Overall bit rate mode: Variable
    Overall bit rate : 15.0 Mbps
    Encoded date : UTC 2014-09-05 21:16:14
    Writing application: mkvmerge v6.7.0 ('Back to the Ground') 32bit built on Jan8 2014 15:03:17
    Writing library: libebml v1.3.0 + libmatroska v1.4.1
    
    Video
    ID : 1
    Format : AVC
    Format/Info: Advanced Video Codec
    Format profile : [email protected]
    Format settings, CABAC : Yes
    Format settings, ReFrames: 5 frames
    Codec ID : V_MPEG4/ISO/AVC
    Duration : 1h 56mn
    Nominal bit rate : 9 288 Kbps
    Width: 1 920 pixels
    Height : 800 pixels
    Display aspect ratio : 2.40:1
    Frame rate mode: Constant
    Frame rate : 23.976 fps
    Color space: YUV
    Chroma subsampling : 4:2:0
    Bit depth: 8 bits
    Scan type: Progressive
    Bits/(Pixel*Frame) : 0.252
    Title: FILM
    Writing library: x264
    Language : English
    Default: Yes
    Forced : No
    
    Audio #1
    ID : 2
    Format : AC-3
    Format/Info: Audio Coding 3
    Mode extension : CM (complete main)
    Format settings, Endianness: Big
    Codec ID : A_AC3
    Duration : 1h 56mn
    Bit rate mode: Constant
    Bit rate : 448 Kbps
    Channel(s) : 6 channels
    Channel positions: Front: L C R, Side: L R, LFE
    Sampling rate: 48.0 KHz
    Bit depth: 16 bits
    Compression mode : Lossy
    Stream size: 372 MiB (3%)
    Title: PL AC3 5.1
    Language : Polish
    Default: Yes
    Forced : No
    
    Audio #2
    ID : 3
    Format : DTS
    Format/Info: Digital Theater Systems
    Format profile : MA / Core
    Mode : 16
    Format settings, Endianness: Big
    Codec ID : A_DTS
    Duration : 1h 56mn
    Bit rate mode: Variable
    Bit rate : Unknown / 1 509 Kbps
    Channel(s) : 6 channels
    Channel positions: Front: L C R, Side: L R, LFE
    Sampling rate: 48.0 KHz
    Bit depth: 24 bits
    Compression mode : Lossless / Lossy
    Title: ENG DTS-HD 5.1
    Language : English
    Default: No
    Forced : No
    
    Audio #3
    ID : 4
    Format : DTS
    Format/Info: Digital Theater Systems
    Mode : 16
    Format settings, Endianness: Big
    Codec ID : A_DTS
    Duration : 1h 56mn
    Bit rate mode: Constant
    Bit rate : 1 509 Kbps
    Channel(s) : 6 channels
    Channel positions: Front: L C R, Side: L R, LFE
    Sampling rate: 48.0 KHz
    Bit depth: 24 bits
    Compression mode : Lossy
    Stream size: 1.22 GiB (10%)
    Title: ENG DTS 5.1
    Language : English
    Default: No
    Forced : No
    
    Text #1
    ID : 5
    Format : UTF-8
    Codec ID : S_TEXT/UTF8
    Codec ID/Info: UTF-8 Plain Text
    Title: PL SUB SRT
    Language : Polish
    Default: No
    Forced : No
    
    Text #2
    ID : 6
    Format : PGS
    Muxing mode: zlib
    Codec ID : S_HDMV/PGS
    Codec ID/Info: The same subtitle format used on BDs/HD-DVDs
    Title: PL SUB
    Language : Polish
    Default: No
    Forced : No
    
    Text #3
    ID : 7
    Format : PGS
    Muxing mode: zlib
    Codec ID : S_HDMV/PGS
    Codec ID/Info: The same subtitle format used on BDs/HD-DVDs
    Title: ENG SUB
    Language : English
    Default: No
    Forced : No

    Part 1


    Nazwa pliku: A.Million.Ways.to.Die.in.the.West.2014.MULTI.1080p.BluRay.x264.DTS.HD.part1.rar
    Rozmiar pliku: 3550,00 MB
    CRC32: B01BB32B
    Liczba segment闚: 418
    Liczba mirror闚: 6
    Uploader: Leon Zawodowiec
    Upload dla: p2m.net.pl


    Part 2


    Nazwa pliku: A.Million.Ways.to.Die.in.the.West.2014.MULTI.1080p.BluRay.x264.DTS.HD.part2.rar
    Rozmiar pliku: 3550,00 MB
    CRC32: FF35CC5F
    Liczba segment闚: 419
    Liczba mirror闚: 6
    Uploader: Leon Zawodowiec
    Upload dla: p2m.net.pl


    Part 3


    Nazwa pliku: A.Million.Ways.to.Die.in.the.West.2014.MULTI.1080p.BluRay.x264.DTS.HD.part3.rar
    Rozmiar pliku: 3550,00 MB
    CRC32: CF3724FD
    Liczba segment闚: 419
    Liczba mirror闚: 7
    Uploader: Leon Zawodowiec
    Upload dla: p2m.net.pl


    Part 4


    Nazwa pliku: A.Million.Ways.to.Die.in.the.West.2014.MULTI.1080p.BluRay.x264.DTS.HD.part4.rar
    Rozmiar pliku: 1372,43 MB
    CRC32: 9BD797F3
    Liczba segment闚: 163
    Liczba mirror闚: 5
    Uploader: Leon Zawodowiec
    Upload dla: p2m.net.pl




    Part 1


    Poka HC


    Part 2


    Poka HC


    Part 3


    Poka HC


    Part 4


    Poka HC





  2. L廩n upija si na koszt 2 os鏏:

    11bioly (6.09.2014), W (6.09.2014)

Zak豉dki

Zak豉dki

Uprawnienia

  • Nie mo瞠sz zak豉da nowych temat闚
  • Nie mo瞠sz pisa wiadomo軼i
  • Nie mo瞠sz dodawa za陰cznik闚
  • Nie mo瞠sz edytowa swoich post闚
  •  
  • BB Code jest W陰czony
  • Emotikony s W陰czony
  • [IMG] kod jest W陰czony
  • [VIDEO] code is W陰czony
  • HTML jest Wy陰czony
  • Trackbacki : Wy陰czony
  • Pingbacki : Wy陰czony
  • Refbacki : W陰czony