Pokaż wyniki od 1 do 1 z 1
  1. #1
    Professional Uploader Avatar Léon
    Dołączył
    16.12.2013
    Skąd
    Paryż
    Postów
    5 411
    Postawił
    33
    Piwa otrzymane
    16 404 (4 968)

    PL & ENG Punkt zwrotny | 2011 [MULTi][1080p][BluRay]


    Punkt zwrotny (2011)
    The Ledge







    Ocena: b/d
    Produkcja: Niemcy, USA, Arabia Saudyjska,
    Gatunek: Dramat, Thriller,
    Światowa Premiera: 2011-01-21
    Polska Premiera: b/d
    Reżyseria: Matthew Chapman
    Zdjęcia: Bobby Bukowski
    Scenariusz: Matthew Chapman
    Muzyka: Nathan Barr
    Czas trwania: b/d
    Dystrybucja: b/d
    O filmie: Punkt zwrotny (2011) - Filmweb







    Młody Gavin stoi na krawędzi budynku i jest zdecydowany skoczyć. Do rozmowy ze skoczkiem wysłany zostaje detektyw  Hollis. Odkrywa on, że Gavin jest zmuszony wyskoczyć z budynku przed południem. Hollis przeżył wstrząsające doświadczenia życiowe i w końcu to Gavin ma przekonać policjanta, że jego życie jest coś warte.  









    Kod:
    Format : Matroska
    Format version : Version 4 / Version 2
    File size: 9.27 GiB
    Duration : 1h 40mn
    Overall bit rate : 13.2 Mbps
    Encoded date : UTC 2014-12-07 19:16:37
    Writing application: mkvmerge v6.7.0 ('Back to the Ground') 32bit built on Jan8 2014 15:03:17
    Writing library: libebml v1.3.0 + libmatroska v1.4.1
    
    Video
    ID : 1
    Format : AVC
    Format/Info: Advanced Video Codec
    Format profile : [email protected]
    Format settings, CABAC : Yes
    Format settings, ReFrames: 4 frames
    Codec ID : V_MPEG4/ISO/AVC
    Duration : 1h 40mn
    Bit rate : 11.2 Mbps
    Width: 1 920 pixels
    Height : 1 038 pixels
    Display aspect ratio : 1.85:1
    Frame rate mode: Constant
    Frame rate : 23.976 fps
    Color space: YUV
    Chroma subsampling : 4:2:0
    Bit depth: 8 bits
    Scan type: Progressive
    Bits/(Pixel*Frame) : 0.234
    Stream size: 7.85 GiB (85%)
    Title: FILM
    Writing library: x264 
    Language : English
    Default: Yes
    Forced : No
    
    Audio #1
    ID : 2
    Format : AC-3
    Format/Info: Audio Coding 3
    Mode extension : CM (complete main)
    Format settings, Endianness: Big
    Codec ID : A_AC3
    Duration : 1h 40mn
    Bit rate mode: Constant
    Bit rate : 256 Kbps
    Channel(s) : 2 channels
    Channel positions: Front: L R
    Sampling rate: 48.0 KHz
    Bit depth: 16 bits
    Compression mode : Lossy
    Stream size: 184 MiB (2%)
    Title: PL AUDIO
    Language : Polish
    Default: Yes
    Forced : No
    
    Audio #2
    ID : 3
    Format : DTS
    Format/Info: Digital Theater Systems
    Mode : 16
    Format settings, Endianness: Big
    Codec ID : A_DTS
    Duration : 1h 40mn
    Bit rate mode: Constant
    Bit rate : 1 509 Kbps
    Channel(s) : 6 channels
    Channel positions: Front: L C R, Side: L R, LFE
    Sampling rate: 48.0 KHz
    Bit depth: 16 bits
    Compression mode : Lossy
    Stream size: 1.06 GiB (11%)
    Title: ENG DTS 5.1
    Language : English
    Default: No
    Forced : No
    
    Text #1
    ID : 4
    Format : UTF-8
    Codec ID : S_TEXT/UTF8
    Codec ID/Info: UTF-8 Plain Text
    Title: PL SUB
    Language : Polish
    Default: No
    Forced : No
    
    Text #2
    ID : 5
    Format : UTF-8
    Codec ID : S_TEXT/UTF8
    Codec ID/Info: UTF-8 Plain Text
    Title: ENG SUB
    Language : English
    Default: No
    Forced : No

    Part 1


    Nazwa pliku: The.Ledge.2011.MULTI.1080p.BluRay.x264.DTS.part1.rar
    Rozmiar pliku: 4000,00 MB
    CRC32: A9FEA6E8
    Liczba segmentów: 469
    Liczba mirrorów: 7
    Uploader: Leon Zawodowiec
    Upload dla: p2m.net.pl


    Part 2


    Nazwa pliku: The.Ledge.2011.MULTI.1080p.BluRay.x264.DTS.part2.rar
    Rozmiar pliku: 4000,00 MB
    CRC32: 4BE471C3
    Liczba segmentów: 469
    Liczba mirrorów: 7
    Uploader: Leon Zawodowiec
    Upload dla: p2m.net.pl


    Part 3


    Nazwa pliku: The.Ledge.2011.MULTI.1080p.BluRay.x264.DTS.part3.rar
    Rozmiar pliku: 2202,17 MB
    CRC32: 9FB9090E
    Liczba segmentów: 260
    Liczba mirrorów: 7
    Uploader: Leon Zawodowiec
    Upload dla: p2m.net.pl




    Part 1


    Pokaż HC


    Part 2


    Pokaż HC


    Part 3


    Pokaż HC





  2. Léon upija się na koszt:

    W (9.12.2014)

Zakładki

Zakładki

Uprawnienia

  • Nie możesz zakładać nowych tematów
  • Nie możesz pisać wiadomości
  • Nie możesz dodawać załączników
  • Nie możesz edytować swoich postów
  •  
  • BB Code jest Włączony
  • EmotikonyWłączony
  • [IMG] kod jest Włączony
  • [VIDEO] code is Włączony
  • HTML jest Wyłączony
  • Trackbacki : Wyłączony
  • Pingbacki : Wyłączony
  • Refbacki : Włączony