Pokaż wyniki od 1 do 1 z 1
  1. #1
    Professional Uploader Avatar Léon
    Dołączył
    16.12.2013
    Skąd
    Paryż
    Postów
    5 411
    Postawił
    33
    Piwa otrzymane
    16 404 (4 968)

    PL & ENG Raport z Europy | 2013 [MULTi][1080p][BluRay]


    Raport z Europy (2013)
    Europa Report







    Ocena: b/d
    Produkcja: USA,
    Gatunek: Thriller, Sci-Fi,
    Światowa Premiera: 2013-06-15
    Polska Premiera: b/d
    Reżyseria: Sebastián Cordero
    Zdjęcia: Enrique Chediak
    Scenariusz: Philip Gelatt
    Muzyka: Bear McCreary
    Czas trwania: b/d
    Dystrybucja: b/d
    O filmie: Europa Report (2013) - Filmweb







    Kiedy bezzałogowe sondy wskazują, że pod oblodzoną powierzchnią Europy może istnieć ukryty ocean a w nim jednokomórkowe formy życia firma Kosmos wysyła sześciu najlepszych astronautów z całego świata, aby potwierdzić dane i zbadać możliwość istnienia obcych form życia w naszym układzie słonecznym . Po katastrofalnej awarii technicznej i śmierci jednego z członków załogi, pozostali przy życiu walcząc o odzyskanie kontaktu z Ziemią muszą przezwyciężyć fizyczne i psychiczne[span class="fullText hide"]piętno najdalszej podróży kosmicznej w dotychczasowej historii gatunku ludzkiego. Jak się jednak okazuje prawda o potencjalnym życiu na Europie jest o wiele bardziej zaskakująca, niż mogli przypuszczać.









    Kod:
    Format : Matroska
    Format version : Version 4 / Version 2
    File size: 10.7 GiB
    Duration : 1h 30mn
    Overall bit rate mode: Variable
    Overall bit rate : 16.9 Mbps
    Encoded date : UTC 2015-01-24 08:51:49
    Writing application: mkvmerge v6.7.0 ('Back to the Ground') 32bit built on Jan8 2014 15:03:17
    Writing library: libebml v1.3.0 + libmatroska v1.4.1
    
    Video
    ID : 1
    Format : AVC
    Format/Info: Advanced Video Codec
    Format profile : [email protected]
    Format settings, CABAC : Yes
    Format settings, ReFrames: 4 frames
    Codec ID : V_MPEG4/ISO/AVC
    Duration : 1h 30mn
    Bit rate mode: Variable
    Nominal bit rate : 14.0 Mbps
    Maximum bit rate : 30.0 Mbps
    Width: 1 920 pixels
    Height : 1 080 pixels
    Display aspect ratio : 16:9
    Frame rate mode: Constant
    Frame rate : 23.976 fps
    Color space: YUV
    Chroma subsampling : 4:2:0
    Bit depth: 8 bits
    Scan type: Progressive
    Bits/(Pixel*Frame) : 0.282
    Title: FILM
    Writing library: x264 
    Language : English
    Default: Yes
    Forced : No
    
    Audio #1
    ID : 2
    Format : AC-3
    Format/Info: Audio Coding 3
    Mode extension : CM (complete main)
    Format settings, Endianness: Big
    Codec ID : A_AC3
    Duration : 1h 30mn
    Bit rate mode: Constant
    Bit rate : 256 Kbps
    Channel(s) : 2 channels
    Channel positions: Front: L R
    Sampling rate: 48.0 KHz
    Bit depth: 16 bits
    Compression mode : Lossy
    Stream size: 166 MiB (2%)
    Title: PL AC3 2.0
    Language : Polish
    Default: Yes
    Forced : No
    
    Audio #2
    ID : 3
    Format : DTS
    Format/Info: Digital Theater Systems
    Format profile : MA / Core
    Mode : 16
    Format settings, Endianness: Big
    Codec ID : A_DTS
    Duration : 1h 30mn
    Bit rate mode: Variable
    Bit rate : Unknown / 1 509 Kbps
    Channel(s) : 6 channels
    Channel positions: Front: L C R, Side: L R, LFE
    Sampling rate: 48.0 KHz
    Bit depth: 16 bits
    Compression mode : Lossless / Lossy
    Title: ENG.DTS 5.1
    Language : English
    Default: No
    Forced : No
    
    Audio #3
    ID : 4
    Format : AC-3
    Format/Info: Audio Coding 3
    Mode extension : CM (complete main)
    Format settings, Endianness: Big
    Codec ID : A_AC3
    Duration : 1h 30mn
    Bit rate mode: Constant
    Bit rate : 640 Kbps
    Channel(s) : 6 channels
    Channel positions: Front: L C R, Side: L R, LFE
    Sampling rate: 48.0 KHz
    Bit depth: 16 bits
    Compression mode : Lossy
    Stream size: 414 MiB (4%)
    Title: ENG.AC3
    Language : English
    Default: No
    Forced : No
    
    Text #1
    ID : 5
    Format : UTF-8
    Codec ID : S_TEXT/UTF8
    Codec ID/Info: UTF-8 Plain Text
    Title: PL SUB
    Language : Polish
    Default: No
    Forced : No
    
    Text #2
    ID : 6
    Format : PGS
    Muxing mode: zlib
    Codec ID : S_HDMV/PGS
    Codec ID/Info: The same subtitle format used on BDs/HD-DVDs
    Title: SUB Eng.PGS
    Language : English
    Default: No
    Forced : No
    
    Text #3
    ID : 7
    Format : PGS
    Muxing mode: zlib
    Codec ID : S_HDMV/PGS
    Codec ID/Info: The same subtitle format used on BDs/HD-DVDs
    Title: SUB SPA.PGS
    Language : Spanish
    Default: No
    Forced : No

    Part 1


    Nazwa pliku: Europa.Report.2013.MULTI.1080p.BluRay.x264.DTS.part1.rar
    Rozmiar pliku: 4000,00 MB
    CRC32: ABBDE1DD
    Liczba segmentów: 475
    Liczba mirrorów: 10
    Uploader: Leon
    Upload dla: p2m.net.pl


    Part 2


    Nazwa pliku: Europa.Report.2013.MULTI.1080p.BluRay.x264.DTS.part2.rar
    Rozmiar pliku: 4000,00 MB
    CRC32: 28F31472
    Liczba segmentów: 471
    Liczba mirrorów: 10
    Uploader: Leon
    Upload dla: p2m.net.pl


    Part 3


    Nazwa pliku: Europa.Report.2013.MULTI.1080p.BluRay.x264.DTS.part3.rar
    Rozmiar pliku: 2851,97 MB
    CRC32: A38BCDA5
    Liczba segmentów: 338
    Liczba mirrorów: 10
    Uploader: Leon
    Upload dla: p2m.net.pl




    Part 1


    Pokaż HC


    Part 2


    Pokaż HC


    Part 3


    Pokaż HC





  2. Léon upija się na koszt 3 osób:

    Basta (23.08.2015), Pieseł (29.01.2015), W (26.01.2015)

Zakładki

Zakładki

Uprawnienia

  • Nie możesz zakładać nowych tematów
  • Nie możesz pisać wiadomości
  • Nie możesz dodawać załączników
  • Nie możesz edytować swoich postów
  •  
  • BB Code jest Włączony
  • EmotikonyWłączony
  • [IMG] kod jest Włączony
  • [VIDEO] code is Włączony
  • HTML jest Wyłączony
  • Trackbacki : Wyłączony
  • Pingbacki : Wyłączony
  • Refbacki : Włączony