Pokaż wyniki od 1 do 1 z 1
  1. #1
    Ultimate Uploader Avatar Niebiański Pies
    Dołączył
    4.01.2015
    Skąd
    Gdańsk
    Postów
    259
    Postawił
    2
    Piwa otrzymane
    933 (241)

    PL & ENG John Doe: Vigilante (2014) [MULTI 1080p BluRay]


    John Doe: Vigilante (2014)
    b/d







    Ocena: b/d
    Produkcja: Australia,
    Gatunek: Kryminał, Thriller,
    Światowa Premiera: 2014-03-21
    Polska Premiera: b/d
    Reżyseria: Kelly Dolen
    Zdjęcia: David Parker
    Scenariusz: Stephen M. Coates
    Muzyka:
    Czas trwania: b/d
    Dystrybucja: b/d
    O filmie: John Doe: Vigilante (2014) - Filmweb







    Niektórzy nazywają go mesjaszem, inni diabłem. Jedni wychwalają i naśladują jego działania, drudzy je piętnują. Ten człowiek poświęcił się idei, usiłując zjednoczyć ludzkość, by stała się wspólnotą, która potrafi uchronić się od wszechobecnej przemocy i bezprawia. Dziś, oskarżony o seryjne zabójstwa John Doe (Jamie Bamber) oczekuje na werdykt w jednej z najbardziej kontrowersyjnych spraw w historii. Dowodem jest mrożący krew w żyłach zbiór pamiętników wideo...









    Kod:
    General
    Format: Matroska
    Format version: Version 4 / Version 2
    File size : 6.71 GiB
    Duration: 1h 33mn
    Overall bit rate: 10.3 Mbps
    Movie name: WiZARDS
    Encoded date: UTC 2015-02-17 21:06:51
    Writing application : mkvmerge v6.7.0 ('Back to the Ground') 32bit built on Jan8 2014 15:03:17
    Writing library : libebml v1.3.0 + libmatroska v1.4.1
    
    Video
    ID: 1
    Format: AVC
    Format/Info : Advanced Video Codec
    Format profile: [email protected]
    Format settings, CABAC: Yes
    Format settings, ReFrames : 5 frames
    Codec ID: V_MPEG4/ISO/AVC
    Duration: 1h 33mn
    Bit rate: 8 523 Kbps
    Width : 1 920 pixels
    Height: 800 pixels
    Display aspect ratio: 2.40:1
    Frame rate mode : Constant
    Frame rate: 24.000 fps
    Color space : YUV
    Chroma subsampling: 4:2:0
    Bit depth : 8 bits
    Scan type : Progressive
    Bits/(Pixel*Frame): 0.231
    Stream size : 5.43 GiB (81%)
    Title : FILM
    Writing library : x264 core 144 r2525 40bb568
    Encoding settings : cabac=1 / ref=5 / deblock=1:0:0 / analyse=0x3:0x133 / me=umh / subme=8 / psy=1 / psy_rd=1.00:0.00 / mixed_ref=1 / me_range=16 / chroma_me=1 / trellis=1 / 8x8dct=1 / cqm=0 / deadzone=21,11 / fast_pskip=0 / chroma_qp_offset=-2 / threads=12 / lookahead_threads=2 / sliced_threads=0 / nr=0 / decimate=1 / interlaced=0 / bluray_compat=0 / constrained_intra=0 / bframes=3 / b_pyramid=2 / b_adapt=1 / b_bias=0 / direct=1 / weightb=1 / open_gop=0 / weightp=2 / keyint=250 / keyint_min=23 / scenecut=40 / intra_refresh=0 / rc_lookahead=40 / rc=2pass / mbtree=1 / bitrate=8523 / ratetol=1.0 / qcomp=0.60 / qpmin=0 / qpmax=69 / qpstep=4 / cplxblur=20.0 / qblur=0.5 / ip_ratio=1.40 / aq=1:1.00
    Language: English
    Default : Yes
    Forced: No
    
    Audio #1
    ID: 2
    Format: AC-3
    Format/Info : Audio Coding 3
    Mode extension: CM (complete main)
    Format settings, Endianness : Big
    Codec ID: A_AC3
    Duration: 1h 33mn
    Bit rate mode : Constant
    Bit rate: 256 Kbps
    Channel(s): 2 channels
    Channel positions : Front: L R
    Sampling rate : 48.0 KHz
    Bit depth : 16 bits
    Compression mode: Lossy
    Stream size : 171 MiB (2%)
    Title : PL AC3 2.0
    Language: Polish
    Default : Yes
    Forced: No
    
    Audio #2
    ID: 3
    Format: DTS
    Format/Info : Digital Theater Systems
    Mode: 16
    Format settings, Endianness : Big
    Codec ID: A_DTS
    Duration: 1h 33mn
    Bit rate mode : Constant
    Bit rate: 1 509 Kbps
    Channel(s): 6 channels
    Channel positions : Front: L C R, Side: L R, LFE
    Sampling rate : 48.0 KHz
    Bit depth : 16 bits
    Compression mode: Lossy
    Stream size : 1 008 MiB (15%)
    Title : ENG DTS 5.1
    Language: English
    Default : No
    Forced: No


    Nazwa pliku: John.Doe.Vigilante.2014.MULTI.1080p.BluRay.x264.DTS.mkv
    Rozmiar pliku: 6873,72 MB
    CRC32: 69927756
    Liczba segmentów: 863
    Liczba mirrorów: 9
    Uploader: Niebianski Pies
    Upload dla: p2m.net.pl





    Pokaż HC



  2. Niebiański Pies upija się na koszt 4 osób:

    gado83 (28.02.2015), macko33 (19.02.2015), tartak6 (21.02.2015), W (19.02.2015)

Zakładki

Zakładki

Uprawnienia

  • Nie możesz zakładać nowych tematów
  • Nie możesz pisać wiadomości
  • Nie możesz dodawać załączników
  • Nie możesz edytować swoich postów
  •  
  • BB Code jest Włączony
  • EmotikonyWłączony
  • [IMG] kod jest Włączony
  • [VIDEO] code is Włączony
  • HTML jest Wyłączony
  • Trackbacki : Wyłączony
  • Pingbacki : Wyłączony
  • Refbacki : Włączony