Pokaż wyniki od 1 do 1 z 1
  1. #1
    Ultimate Uploader Avatar Niebiański Pies
    Dołączył
    4.01.2015
    Skąd
    Gdańsk
    Postów
    259
    Postawił
    2
    Piwa otrzymane
    933 (241)

    PL Mafia zabija tylko latem (2013) [PL 720p BRRip]


    Mafia zabija tylko latem (2013)
    La mafia uccide solo d'estate







    Ocena: 6,6
    Produkcja: Włochy,
    Gatunek: Komedia
    Światowa Premiera: 2013-11-27
    Polska Premiera: b/d
    Reżyseria: Pif
    Zdjęcia: Roberto Forza
    Scenariusz: Pif Michele Astori Marco Martani
    Muzyka: Santi Pulvirenti
    Dystrybucja: b/d
    O filmie: Mafia zabija tylko latem (2013) - Filmweb







    Palermo. Arturo od najmłodszych lat darzy uczuciem piękną i błyskotliwą Florę. Poznali się w szkole i mimo że ich drogi później się rozeszły, chłopak nie potrafi o niej zapomnieć. Kiedy dorasta, zostaje dziennikarzem i robi wszystko, żeby być blisko ukochanej. W mieście rządzonym przez mafię, co chwilę wybuchają jakieś skandale. Arturo ma więc wiele pracy.









    Kod:
    General
    Format: AVI
    Format/Info : Audio Video Interleave
    Format profile: OpenDML
    File size : 2.47 GiB
    Duration: 1h 29mn
    Overall bit rate: 3 965 Kbps
    Writing application : VirtualDubMod 1.5.10.2 (build 2540/release)
    Writing library : VirtualDubMod build 2540/release
    
    Video
    ID: 0
    Format: MPEG-4 Visual
    Format profile: Advanced [email protected]
    Format settings, BVOP : 2
    Format settings, QPel : No
    Format settings, GMC: No warppoints
    Format settings, Matrix : Custom
    Codec ID: XVID
    Codec ID/Hint : XviD
    Duration: 1h 29mn
    Bit rate: 3 698 Kbps
    Width : 1 280 pixels
    Height: 692 pixels
    Display aspect ratio: 1.85:1
    Frame rate: 23.976 fps
    Color space : YUV
    Chroma subsampling: 4:2:0
    Bit depth : 8 bits
    Scan type : Progressive
    Compression mode: Lossy
    Bits/(Pixel*Frame): 0.174
    Stream size : 2.30 GiB (93%)
    Writing library : XviD 1.2.1 (UTC 2008-12-04)
    
    Audio
    ID: 1
    Format: AC-3
    Format/Info : Audio Coding 3
    Mode extension: CM (complete main)
    Format settings, Endianness : Big
    Codec ID: 2000
    Duration: 1h 29mn
    Bit rate mode : Constant
    Bit rate: 256 Kbps
    Channel(s): 2 channels
    Channel positions : Front: L R
    Sampling rate : 48.0 KHz
    Bit depth : 16 bits
    Compression mode: Lossy
    Stream size : 163 MiB (6%)
    Alignment : Split accross interleaves
    Interleave, duration: 42 ms (1.00 video frame)
    Interleave, preload duratio : 500 ms


    Nazwa pliku: The.Mafia.Only.Kill.in.Summer.2013.PL.720p.BRRip.XviD.AC3.avi
    Rozmiar pliku: 2530,88 MB
    CRC32: 0E8151D8
    Liczba segmentów: 316
    Liczba mirrorów: 8
    Uploader: Niebianski Pies
    Upload dla: p2m.net.pl





    Pokaż HC



  2. Niebiański Pies upija się na koszt 4 osób:

    CGrze (25.03.2015), pszemchu (20.03.2015), raf194 (21.04.2015), W (17.03.2015)

Zakładki

Zakładki

Uprawnienia

  • Nie możesz zakładać nowych tematów
  • Nie możesz pisać wiadomości
  • Nie możesz dodawać załączników
  • Nie możesz edytować swoich postów
  •  
  • BB Code jest Włączony
  • EmotikonyWłączony
  • [IMG] kod jest Włączony
  • [VIDEO] code is Włączony
  • HTML jest Wyłączony
  • Trackbacki : Wyłączony
  • Pingbacki : Wyłączony
  • Refbacki : Włączony