Pokaż wyniki od 1 do 1 z 1
  1. #1
    Professional Uploader Avatar Léon
    Dołączył
    16.12.2013
    Skąd
    Paryż
    Postów
    5 411
    Postawił
    33
    Piwa otrzymane
    16 404 (4 968)

    PL & ENG True Story | 2015 [MULTi][720p][BluRay]


    True Story (2015)







    Ocena: 6,1
    Produkcja: USA,
    Gatunek: Dramat,
    Światowa Premiera: b/d
    Polska Premiera: b/d
    Reżyseria: Rupert Goold,
    Zdjęcia: Masanobu Takayanagi
    Scenariusz: David Kajganich,
    Muzyka: Marco Beltrami
    Dystrybucja: b/d
    O filmie: True Story (2015) - Filmweb





    Jonah Hill - Michael Finkel
    James Franco - Christian Longo
    Felicity Jones - Jill
    Gretchen Mol - Karen
    Maria Dizzia - Mary Jane Longo
    Genevieve Angelson - Tina Alvis
    Dana Eskelson - Joy Longo
    Edward James Hyland - Pan Lango





    Po brutalnym zabiciu własnej rodziny Christian Longo (James Franco) znajduje się na liście FBI najbardziej poszukiwanych przestępców. Mężczyzna przez lata ukrywa się poza granicami USA pod nazwiskiem Finkel. W pewnym momencie jego życia pojawia się dziennikarz, Michael Finkel (Jonah Hill).









    Kod:
    Format : Matroska
    Format version : Version 4 / Version 2
    File size: 4.54 GiB
    Duration : 1h 39mn
    Overall bit rate : 6 537 Kbps
    Encoded date : UTC 2015-10-23 10:38:54
    Writing application: mkvmerge v8.3.0 ('Over the Horizon') 64bit
    Writing library: libebml v1.3.1 + libmatroska v1.4.2
    DURATION : 01:39:26.016000000
    NUMBER_OF_FRAMES : 186438
    NUMBER_OF_BYTES: 190912512
    _STATISTICS_WRITING_APP: mkvmerge v8.3.0 ('Over the Horizon') 64bit
    _STATISTICS_WRITING_DATE_UTC : 2015-10-23 10:38:54
    _STATISTICS_TAGS : BPS DURATION NUMBER_OF_FRAMES NUMBER_OF_BYTES
    
    Video
    ID : 1
    Format : AVC
    Format/Info: Advanced Video Codec
    Format profile : [email protected]
    Format settings, CABAC : Yes
    Format settings, ReFrames: 5 frames
    Codec ID : V_MPEG4/ISO/AVC
    Duration : 1h 39mn
    Bit rate : 4 779 Kbps
    Width: 1 280 pixels
    Height : 688 pixels
    Display aspect ratio : 1.85:1
    Frame rate mode: Constant
    Frame rate : 23.976 fps
    Color space: YUV
    Chroma subsampling : 4:2:0
    Bit depth: 8 bits
    Scan type: Progressive
    Bits/(Pixel*Frame) : 0.226
    Stream size: 3.22 GiB (71%)
    Title: FILM
    Writing library: x264 
    Language : English
    Default: Yes
    Forced : No
    DURATION : 01:39:25.970000000
    NUMBER_OF_FRAMES : 143040
    NUMBER_OF_BYTES: 3556673285
    _STATISTICS_WRITING_APP: mkvmerge v8.3.0 ('Over the Horizon') 64bit
    _STATISTICS_WRITING_DATE_UTC : 2015-10-23 10:38:54
    _STATISTICS_TAGS : BPS DURATION NUMBER_OF_FRAMES NUMBER_OF_BYTES
    
    Audio #1
    ID : 2
    Format : AC-3
    Format/Info: Audio Coding 3
    Mode extension : CM (complete main)
    Format settings, Endianness: Big
    Codec ID : A_AC3
    Duration : 1h 39mn
    Bit rate mode: Constant
    Bit rate : 256 Kbps
    Channel(s) : 2 channels
    Channel positions: Front: L R
    Sampling rate: 48.0 KHz
    Bit depth: 16 bits
    Compression mode : Lossy
    Stream size: 182 MiB (4%)
    Title: PL AC3 2.0
    Language : Polish
    Default: Yes
    Forced : No
    
    Audio #2
    ID : 3
    Format : DTS
    Format/Info: Digital Theater Systems
    Mode : 16
    Format settings, Endianness: Big
    Codec ID : A_DTS
    Duration : 1h 39mn
    Bit rate mode: Constant
    Bit rate : 1 509 Kbps
    Channel(s) : 6 channels
    Channel positions: Front: L C R, Side: L R, LFE
    Sampling rate: 48.0 KHz
    Bit depth: 24 bits
    Compression mode : Lossy
    Stream size: 1.05 GiB (23%)
    Title: ENG DTS 5.1
    Language : English
    Default: No
    Forced : No


    Nazwa pliku: True.Story.2015.MULTI.720p.BluRay.x264.DTS.rar
    Rozmiar pliku: 4591,33 MB
    CRC32: 6C59B49C
    Liczba segmentów: 543
    Liczba mirrorów: 9
    Uploader: Leon
    Upload dla: p2m.net.pl





    Pokaż HC


    Ostatnio edytowane przez Léon ; 25.10.2015 o 21:59




  2. Léon upija się na koszt:

    katban (13.12.2015)

Zakładki

Zakładki

Uprawnienia

  • Nie możesz zakładać nowych tematów
  • Nie możesz pisać wiadomości
  • Nie możesz dodawać załączników
  • Nie możesz edytować swoich postów
  •  
  • BB Code jest Włączony
  • EmotikonyWłączony
  • [IMG] kod jest Włączony
  • [VIDEO] code is Włączony
  • HTML jest Wyłączony
  • Trackbacki : Wyłączony
  • Pingbacki : Wyłączony
  • Refbacki : Włączony